Після конвертації аудіодоріжки в E-AC-3 JOC в звичний AC-3 звук стає тихішим

Нові коментарі

Нова тема   Відповісти
Автор Повідомлення
gunterZhlob 
Поважний учасник


З нами з: 15.12.08
Востаннє: 09.06.24
Повідомлень: 245

2023-12-09 23:15  
Зайнявся першим своїм ріпом в AVC і зіткнувся з проблемою.
На моєму телевізорі, перекодований звук необхідно збільшувати гучність в 3-4 рази. Інколи таке зустрічалась в інших релізах, і тут виявилась причина розібратись.

Вихідний звук https://toloka.to/t674709 надається в кодеці E-AC-3 JOC
Info Audio #1

ID : 2
Format : E-AC-3 JOC
Format/Info : Enhanced AC-3 with Joint Object Coding
Commercial name : Dolby Digital Plus with Dolby Atmos
Codec ID : A_EAC3
Duration : 1 h 46 min
Bit rate mode : Constant
Bit rate : 768 kb/s
Channel(s) : 6 channels
Channel layout : L R C LFE Ls Rs
Sampling rate : 48.0 kHz
Frame rate : 31.250 FPS (1536 SPF)
Compression mode : Lossy
Stream size : 587 MiB (11%)
Title : DUB (Le Doyen / Netflix)
Language : Ukrainian
Service kind : Complete Main
Default : Yes
Forced : No
Complexity index : 16
Number of dynamic objects : 15
Bed channel count : 1 channel
Bed channel configuration : LFE
Релізер сам надав перекодований звук і він також тихіший.
Info Audio #2

ID : 3
Format : AC-3
Format/Info : Audio Coding 3
Commercial name : Dolby Digital
Codec ID : A_AC3
Duration : 1 h 46 min
Bit rate mode : Constant
Bit rate : 640 kb/s
Channel(s) : 6 channels
Channel layout : L R C LFE Ls Rs
Sampling rate : 48.0 kHz
Frame rate : 31.250 FPS (1536 SPF)
Compression mode : Lossy
Stream size : 489 MiB (9%)
Title : DUB (Le Doyen / Netflix)
Language : Ukrainian
Service kind : Complete Main
Default : No
Forced : No
На комп'ютері цієї різниці не чується (на моєму обладнанні).
Мій звук по типу цього

Format : AC-3
Format/Info : Audio Coding 3
Commercial name : Dolby Digital
Codec ID : A_AC3
Duration : 2 min 15 s
Bit rate mode : Constant
Bit rate : 384 kb/s
Channel(s) : 6 channels
Channel layout : L R C LFE Ls Rs
Sampling rate : 48.0 kHz
Frame rate : 31.250 FPS (1536 SPF)
Compression mode : Lossy
Stream size : 6.20 MiB (11%)
Service kind : Complete Main
Default : No
Forced : No
Я не претендую на звання видатного релізера. Але й хочу зробити роздачу більш-менш толкову.
Раніше все тільки перезбирав з готових доріжок.

Перебрав вже дуже багато програм.
Ріп відео робив Avidemux'om. Звук розбирав на канали, кодував в eac3to і ще багато іншого. Результат однаковий - кодований звук тихіший нормального.
Дивився спектри. Вони зарізані десь на 14000, а в оригіналі до йдуть до 20000. В іншому ріпі, з яким я звірився теж зрізаний, але до 16000. Я все ж в цьому не дуже розумію.
Нормалізацію чи Компресію не хочу робити, щоб не попсувати звук.

Спробував зробити з ключем -keepDialnorm - тоді звук потрібно збільшити тільки вдвічі - це вже результат!)

Почитав про цей кодек і думаю, що може треба якось інакше розбирати об'єкти JOC.

Є якісь поради по кодуванню і перезбору саме цих доріжок? Схоже, що цей формат буде ставати популярнішим і питання з'являтись частіше.
Ваш часовий пояс: GMT + 2 Години

Нова тема   Відповісти