Створення релізів h264 +

Нові коментарі

Нова тема   Відповісти
Сторінка:   попередня  1, 2, 3, 4
Автор Повідомлення
Jatx_11 
Відео Гуртом - фільмокрай
Відео Гуртом - фільмокрай


З нами з: 20.04.11
Востаннє: 03.10.22
Повідомлень: 1453

2022-01-29 16:29  
Хтось як вирішити проблему. Кодую ДВД з 29фпс?
krigg070 
Відео Гуртом - фільмокрай
Відео Гуртом - фільмокрай


З нами з: 29.10.14
Востаннє: 02.10.22
Повідомлень: 2431

2022-01-29 21:47  
Jatx_11 написано:
Хтось як вирішити проблему. Кодую ДВД з 29фпс?

Якщо я правильно пам'ятаю - максимальне значення GOP повинне бути = FPS * 10. Тобто для 29.97 fps - 300
Jatx_11 
Відео Гуртом - фільмокрай
Відео Гуртом - фільмокрай


З нами з: 20.04.11
Востаннє: 03.10.22
Повідомлень: 1453

2022-01-29 23:02  
krigg070
Так і є. Ніколи такого не булу на попередніх дисках.
krigg070 
Відео Гуртом - фільмокрай
Відео Гуртом - фільмокрай


З нами з: 29.10.14
Востаннє: 02.10.22
Повідомлень: 2431

2022-01-29 23:19  
Jatx_11 написано:
Так і є. Ніколи такого не булу на попередніх дисках.

Де вивід config encoder settings?
AngryBirdsUA 
Свій


З нами з: 24.02.10
Востаннє: 03.10.22
Повідомлень: 3696

2022-07-01 14:47  
Відео FPS 29.70 так і перекодовувати з таким фпс?
Electroz 
Відео Гуртом - підтримка та поширення
Відео Гуртом - підтримка та поширення


З нами з: 18.09.14
Востаннє: 03.10.22
Повідомлень: 5043

2022-07-01 14:49  
AngryBirdsUA написано:
Відео FPS 29.70 так і перекодовувати з таким фпс?

Це не правильний фпс, там скоріше за все 23,976
AngryBirdsUA 
Свій


З нами з: 24.02.10
Востаннє: 03.10.22
Повідомлень: 3696

2022-07-01 14:50  
Electroz
Звук ліг під 25 фпс.
Lifecycle_team 
Новенький


З нами з: 19.07.22
Востаннє: 27.09.22
Повідомлень: 3

2022-08-02 21:00  
усім доброго дня, шановне панство.
Виникла проблема з кодуванням матеріалу для релізу. Є серії мультсеріалу, з наступними характеристиками:

Format : MPEG-4
Format profile : Base Media / Version 2
Codec ID : mp42 (isom/mp42)
File size : 1 012 MiB
Duration : 12 min 2 s
Overall bit rate mode : Variable
Overall bit rate : 11.8 Mb/s
Encoded date : UTC 2022-07-04 20:24:25
Tagged date : UTC 2022-07-04 20:24:25

Video
ID : 1
Format : HEVC
Format/Info : High Efficiency Video Coding
Format profile : [email protected]@High
Codec ID : hvc1
Codec ID/Info : High Efficiency Video Coding
Duration : 12 min 2 s
Bit rate : 11.6 Mb/s
Width : 1 920 pixels
Height : 1 080 pixels
Display aspect ratio : 16:9
Frame rate mode : Constant
Frame rate : 29.970 (30000/1001) FPS
Color space : YUV
Chroma subsampling : 4:2:0
Bit depth : 8 bits
Bits/(Pixel*Frame) : 0.186
Stream size : 995 MiB (98%)
Language : English
Encoded date : UTC 2022-07-04 20:24:26
Tagged date : UTC 2022-07-04 20:24:26
Color range : Limited
Codec configuration box : hvcC

Audio
ID : 2
Format : LC
Format/Info : Advanced Audio Codec Low Complexity
Codec ID : mp4a-40-2
Duration : 12 min 2 s
Bit rate mode : Variable
Bit rate : 192 kb/s
Maximum bit rate : 462 kb/s
Channel(s) : 2 channels
Channel layout : L R
Sampling rate : 48.0 kHz
Frame rate : 46.875 FPS (1024 SPF)
Compression mode : Lossy
Stream size : 16.3 MiB (2%)
Підкажіть, через що його можна перекодувати у х264 - ?
Jatx_11 
Відео Гуртом - фільмокрай
Відео Гуртом - фільмокрай


З нами з: 20.04.11
Востаннє: 03.10.22
Повідомлень: 1453

2022-08-03 13:29  
Почитай тут https://toloka.to/t63946-90
Ваш часовий пояс: GMT + 2 Години

Нова тема   Відповісти Сторінка:   попередня  1, 2, 3, 4