Завантаження з Megogo

Нові коментарі

Нова тема   Відповісти
Автор Повідомлення
Barak Obama 
Новенький


З нами з: 26.08.11
Востаннє: 17.06.21
Повідомлень: 3

2019-09-01 19:24  
Доброго вечора шановні гуртомівці !
Не знаю як давно це, але я помітив, що на Megogo деякі фільми (в основному дуже популярні фільми, найвідоміших студій і саме виробництва США) захищені DRM, і їх так просто не збережеш на жорсткий диск. Добре, що поки всі українські фільми і серіали без DRM. Це мене трохи засмутило, бо я думав, що на Megogo цього взагалі нема. Знаю, що DRM також є на Netflix та Hulu. Хто, що думає з цього приводу ? Зараз я шукаю спосіб як все-таки качати і такі відео.
laszlozp 
Забанено
Забанено


З нами з: 28.07.19
Востаннє: 13.11.19
Повідомлень: 492

2019-09-01 20:25  
Якихось дієвих і водночас безкоштовних програм чи скриптів, які б обходили DRM на Netflix/Amazon чи Hulu, нема. На форумах постійно згадують якийсь Wvdownloader, але за нього просять аж надто багато грошей (більше 100 "єврів"). З іншого боку, що Вам заважає завантажувати релізи з TPB, а потім вшивати туди українську "доріжку" ?!
Barak Obama 
Новенький


З нами з: 26.08.11
Востаннє: 17.06.21
Повідомлень: 3

2019-09-05 17:31  
laszlozp
Дякую за відповідь. Проблеми нема, бо те, що в них з DRM - можна скачати з інших джерел в кращій якості, навіть Blu-ray. Але треба щось придумати, щоб і дрм обходити. Наприклад, на Netflix дуже багато цікавого є, і було б класно мати можливість звідти качати відео.
laszlozp 
Забанено
Забанено


З нами з: 28.07.19
Востаннє: 13.11.19
Повідомлень: 492

2019-09-05 18:03  
Barak Obama
Знову ж таки торренти Вам в поміч, але пам'ятайте що доступного warez - софту для обходу DRM нема.
Barak Obama 
Новенький


З нами з: 26.08.11
Востаннє: 17.06.21
Повідомлень: 3

2019-09-05 19:19  
laszlozp
Дякую
ssTAss 
Модератор музики


З нами з: 05.07.08
Востаннє: 26.07.21
Повідомлень: 18117

2019-10-17 01:20  
Підніму тему.
Є такий сервіс vod.pl і наприклад безкоштовний фільм https://vod.pl/filmy/brunet-wieczorowa-pora/w5ne9bc, дивитися можна в браузері, ніби і завантажити можна, але файли зашифровані. При перегляді сервіс бере файл зі сторінки https://partner.ipla.tv/embed/2yRS5K/media/56e580a4bbe4fd5cfdba95178c1be33c/vod
(щоб глянути, треба виставити польський IP, роблю це через VPN додаток)
без VPN сторінка виглядає так
тиць
з польським IP так
тиць
виділив стрілкою щоб було видно, що фільм показується весь 01:31:33
завантажує два файли - окремо відео і окремо аудіо
http://bit.ly/2OQnNDH
а відкрити їх ніяк
MI video
General
Complete name : 68020-video-2375439-3960kbps.mp4
Format : dash
Codec ID : dash (iso6/mp41/avc1)
File size : 2.53 GiB
Duration : 1 h 31 min
Overall bit rate : 3 949 kb/s
Encoded date : UTC 2018-12-10 20:49:28
Tagged date : UTC 2018-12-10 20:49:28

Video
ID : 9
Format : AVC
Format/Info : Advanced Video Codec
Format profile : [email protected]
Format settings : CABAC / 4 Ref Frames
Format settings, CABAC : Yes
Format settings, ReFrames : 4 frames
Codec ID : encv / avc1
Codec ID/Info : Advanced Video Coding
Duration : 1 h 31 min
Bit rate : 3 960 kb/s
Width : 1 920 pixels
Height : 1 080 pixels
Display aspect ratio : 16:9
Frame rate mode : Constant
Frame rate : 25.000 FPS
Color space : YUV
Chroma subsampling : 4:2:0
Bit depth : 8 bits
Scan type : Progressive
Bits/(Pixel*Frame) : 0.076
Stream size : 2.52 GiB (100%)
Writing library : core 155
Encoding settings : cabac=1 / ref=4 / deblock=1:-1:-1 / analyse=0x3:0x133 / me=umh / subme=9 / psy=1 / psy_rd=1.00:0.15 / mixed_ref=1 / me_range=16 / chroma_me=1 / trellis=2 / 8x8dct=1 / cqm=0 / deadzone=21,11 / fast_pskip=1 / chroma_qp_offset=-3 / threads=34 / lookahead_threads=2 / sliced_threads=0 / nr=0 / decimate=1 / interlaced=0 / bluray_compat=0 / constrained_intra=0 / bframes=3 / b_pyramid=2 / b_adapt=2 / b_bias=0 / direct=3 / weightb=1 / open_gop=0 / weightp=2 / keyint=64 / keyint_min=33 / scenecut=0 / intra_refresh=0 / rc_lookahead=60 / rc=abr / mbtree=1 / bitrate=3960 / ratetol=1.0 / qcomp=0.60 / qpmin=3 / qpmax=69 / qpstep=4 / vbv_maxrate=5280 / vbv_bufsize=15840 / nal_hrd=none / filler=0 / ip_ratio=1.40 / aq=1:1.00
Encoded date : UTC 2018-12-10 20:49:28
Tagged date : UTC 2018-12-10 20:49:28
Encryption : Encrypted
Codec configuration box : avcC
MI audio
General
Complete name : 68020-audio-2375440-128kbps.mp4
Format : dash
Codec ID : dash (iso6/mp41)
File size : 86.7 MiB
Duration : 1 h 31 min
Overall bit rate : 132 kb/s
Encoded date : UTC 2018-12-10 20:58:50
Tagged date : UTC 2018-12-10 20:58:50

Audio
ID : 3
Format : LC
Format/Info : Advanced Audio Codec Low Complexity
Codec ID : enca-40-2
Duration : 1 h 31 min
Bit rate : 128 kb/s
Channel(s) : 2 channels
Channel layout : L R
Sampling rate : 44.1 kHz
Frame rate : 43.066 FPS (1024 SPF)
Compression mode : Lossy
Stream size : 83.8 MiB (97%)
Language : English
Encoded date : UTC 2018-12-10 20:58:50
Tagged date : UTC 2018-12-10 20:58:50
Encryption : Encrypted
може вже хтось придумав якийсь спосіб обходу того DRM?
ну, крім запису з екрану, звісно...
p.s. не розходиться власне про цей фільм, цікавить сам принцип
Ваш часовий пояс: GMT + 2 Години

Нова тема   Відповісти