Друзі Оушена. Квадрологія / Ocean's Friends. Quadrilogy (2001-2018) 1080p H.265 Ukr/Eng | Sub Ukr/Eng

Нові коментарі

Нова тема   Відповісти
Автор Повідомлення
Anonymous 







2019-03-20 10:19  
Друзі Оушена. Квадрологія / Ocean's Friends. Quadrilogy (2001-2018) 1080p H.265 Ukr/Eng | Sub Ukr/Eng

Друзі Оушена. Квадрологія / Ocean's Friends. Quadrilogy (2001-2018) 1080p H.265 Ukr/Eng | Sub Ukr/Eng

1. Одинадцять друзів Оушена (Оушен і десять його друзів) / Ocean's Eleven (2001) 1080p H.265 2xUkr/Eng | Sub Ukr/Eng
Одинадцять друзів Оушена (Оушен і десять його друзів) / Ocean's Eleven (2001) 1080p H.265 2xUkr/Eng | Sub Ukr/Eng

Друзі Оушена. Квадрологія / Ocean's Friends. Quadrilogy (2001-2018) 1080p H.265 Ukr/Eng | Sub Ukr/Eng


Жанр: комедія, кримінал, трилер
Країна: США
Кінокомпанія: Warner Bros., Village Roadshow Pictures, NPV Entertainment
Режисер: Стівен Содерберґ / Steven Soderbergh
Актори: Джордж Клуні / George Clooney, Бред Піт / Brad Pitt, Мет Деймон / Matt Damon, Дон Чідл / Don Cheadle, Енді Ґарсія / Andy Garcia, Джулія Робертс / Julia Roberts та інші

Сюжет:
Після виходу з в'язниці злодія Денні Оушена не проходить і 24 годин, а він вже планує організувати найскладнішу крадіжку казино в історії. Він хоче викрасти 150 млн. доларів з трьох найбільших казино Лас-Вегаса. Всі ці казино належать елегантному і в той же час суворому бізнесмену Террі Бенедикту, який тільки й мріє про те, як зустрітися з колишньою дружиною Денні Оушена - Тесс. Можливо це лише збіг обставин? А можливо це привід?

Тривалість: 01:56:28
Якість:
Відео:
кодек: H.265 (HEVC)
розмір кадру: 1920 x 1080
бітрейт: 11 041 кб/с
бітова глибина: 10 біт
Увага! Перед завантаженням переконайтесь, що ваш пристрій відтворення (та/або ПЗ) підтримує H.265 (HEVC)

Аудіо # 1:
мова: українська
переклад: двоголосий закадровий
кодек: AC-3 2.0
бітрейт: 192 кб/с

Аудіо # 2:
мова: українська
переклад: багатоголосий закадровий , ,
кодек: AC-3 2.0
бітрейт: 192 кб/с

Аудіо # 3:
мова: англійська
переклад: оригінал
кодек: AC-3 5.1
бітрейт: 640 кб/с

Субтитри # 1:
мова: українська (Full),
тип: програмні (м'які)
формат: *.srt

Субтитри # 2:
мова: англійська (Full),
тип: програмні (м'які)
формат: *.srt


Info
Код:
General
Unique ID                                : 187176038604785036237731282539801660204 (0x8CD0CB33FDC33DE83B23AA714666CB2C)
Complete name                            : F:\Video\Ocean's Friends. Quadrilogy (2001-2018) 1080p H.265 [UKR_ENG] [Hurtom]\1. Ocean's Eleven (2001) [Open Matte] 1080p H.265 [2xUKR_ENG] [Hurtom].
Format                                   :
Format version                           : Version 4 / Version 2
File size                                : 9.82 GiB
Duration                                 : 1 h 56 min
Overall bit rate                         : 12.1 Mb/s
Movie name                               : Ocean's Eleven (2001)
Encoded date                             : UTC 2019-03-18 21:40:19
Writing application                      : v20.0.0 ('I Am The Sun') 64-bit
Writing library                          : libebml v1.3.5 + v1.4.8
Cover                                    : Yes
Attachments                              : Cover.jpg

Video
ID                                       : 1
Format                                   : HEVC
Format/Info                              : High Efficiency Video Coding
Format profile                           : Main [email protected]@High
Codec ID                                 : V_MPEGH/ISO/HEVC
Duration                                 : 1 h 56 min
Bit rate                                 : 11.0 Mb/s
Width                                    : 1 920 pixels
Height                                   : 1 080 pixels
Display aspect ratio                     : 16:9
Frame rate mode                          : Constant
Frame rate                               : 29.970 (30000/1001) FPS
Color space                              : YUV
Chroma subsampling                       : 4:2:0
Bit depth                                : 10 bits
Bits/(Pixel*Frame)                       : 0.178
Stream size                              : 8.98 GiB (91%)
Title                                    : Ocean's Eleven (2001)
Writing library                          : x265 2.9+9-f74003e88622:[Windows][GCC 8.2.0][64 bit] 10bit
Encoding settings                        : cpuid=1111039 / frame-threads=9 / numa-pools=8 / wpp / no-pmode / no-pme / no-psnr / no-ssim / log-level=3 / input-csp=1 / input-res=1920x1080 / interlace=0 / total-frames=0 / level-idc=51 / high-tier=1 / uhd-bd=0 / ref=5 / allow-non-conformance / no-repeat-headers / annexb / no-aud / no-hrd / info / hash=0 / no-temporal-layers / open-gop / min-keyint=23 / keyint=250 / gop-lookahead=0 / bframes=8 / b-adapt=2 / b-pyramid / bframe-bias=0 / rc-lookahead=40 / lookahead-slices=6 / scenecut=40 / radl=0 / no-intra-refresh / ctu=64 / min-cu-size=8 / no-rect / no-amp / max-tu-size=32 / tu-inter-depth=1 / tu-intra-depth=1 / limit-tu=0 / rdoq-level=2 / dynamic-rd=0.00 / no-ssim-rd / signhide / no-tskip / nr-intra=0 / nr-inter=0 / no-constrained-intra / no-strong-intra-smoothing / max-merge=2 / limit-refs=3 / no-limit-modes / me=3 / subme=7 / merange=57 / temporal-mvp / weightp / weightb / no-analyze-src-pics / deblock=-2:-2 / no-sao / no-sao-non-deblock / rd=4 / no-early-skip / rskip / no-fast-intra / no-tskip-fast / no-cu-lossless / no-b-intra / no-splitrd-skip / rdpenalty=0 / psy-rd=2.00 / psy-rdoq=1.00 / no-rd-refine / no-lossless / cbqpoffs=0 / crqpoffs=0 / rc=crf / crf=19.0 / qcomp=0.65 / qpstep=2 / stats-write=0 / stats-read=0 / vbv-maxrate=50000 / vbv-bufsize=50000 / vbv-init=0.9 / crf-max=0.0 / crf-min=0.0 / ipratio=1.40 / pbratio=1.30 / aq-mode=1 / aq-strength=1.00 / cutree / zone-count=0 / no-strict-cbr / qg-size=32 / no-rc-grain / qpmax=69 / qpmin=0 / no-const-vbv / sar=1 / overscan=0 / videoformat=5 / range=0 / colorprim=1 / transfer=1 / colormatrix=1 / chromaloc=0 / display-window=0 / max-cll=0,0 / min-luma=0 / max-luma=1023 / log2-max-poc-lsb=8 / vui-timing-info / vui-hrd-info / slices=1 / no-opt-qp-pps / no-opt-ref-list-length-pps / no-multi-pass-opt-rps / scenecut-bias=0.05 / no-opt-cu-delta-qp / no-aq-motion / no-hdr / no-hdr-opt / no-dhdr10-opt / no-idr-recovery-sei / analysis-reuse-level=5 / scale-factor=0 / refine-intra=0 / refine-inter=0 / refine-mv=0 / no-limit-sao / ctu-info=0 / no-lowpass-dct / refine-mv-type=0 / copy-pic=1 / max-ausize-factor=1.0 / no-dynamic-refine / no-single-sei
Default                                  : Yes
Forced                                   : No
Color range                              : Limited
Color primaries                          : BT.709
Transfer characteristics                 : BT.709
Matrix coefficients                      : BT.709

Audio #1
ID                                       : 2
Format                                   : AC-3
Format/Info                              : Audio Coding 3
Codec ID                                 : A_AC3
Duration                                 : 1 h 56 min
Bit rate mode                            : Constant
Bit rate                                 : 192 kb/s
Channel(s)                               : 2 channels
Channel positions                        : Front: L R
Sampling rate                            : 48.0 kHz
Frame rate                               : 31.250 FPS (1536 SPF)
Bit depth                                : 16 bits
Compression mode                         : Lossy
Delay relative to video                  : 208 ms
Stream size                              : 160 MiB (2%)
Title                                    : ДЗ - 1+1
Language                                 : Ukrainian
Service kind                             : Complete Main
Default                                  : Yes
Forced                                   : Yes

Audio #2
ID                                       : 3
Format                                   : AC-3
Format/Info                              : Audio Coding 3
Codec ID                                 : A_AC3
Duration                                 : 1 h 56 min
Bit rate mode                            : Constant
Bit rate                                 : 192 kb/s
Channel(s)                               : 2 channels
Channel positions                        : Front: L R
Sampling rate                            : 48.0 kHz
Frame rate                               : 31.250 FPS (1536 SPF)
Bit depth                                : 16 bits
Compression mode                         : Lossy
Delay relative to video                  : 208 ms
Stream size                              : 160 MiB (2%)
Title                                    : БЗ - ICTV, Novy Kanal, Inter
Language                                 : Ukrainian
Service kind                             : Complete Main
Default                                  : No
Forced                                   : No

Audio #3
ID                                       : 4
Format                                   : AC-3
Format/Info                              : Audio Coding 3
Codec ID                                 : A_AC3
Duration                                 : 1 h 56 min
Bit rate mode                            : Constant
Bit rate                                 : 640 kb/s
Channel(s)                               : 6 channels
Channel positions                        : Front: L C R, Side: L R, LFE
Sampling rate                            : 48.0 kHz
Frame rate                               : 31.250 FPS (1536 SPF)
Bit depth                                : 16 bits
Compression mode                         : Lossy
Stream size                              : 533 MiB (5%)
Title                                    : Original
Language                                 : English
Service kind                             : Complete Main
Default                                  : No
Forced                                   : No

Text #1
ID                                       : 5
Format                                   : UTF-8
Codec ID                                 : S_TEXT/UTF8
Codec ID/Info                            : UTF-8 Plain Text
Duration                                 : 1 h 50 min
Bit rate                                 : 84 b/s
Count of elements                        : 1156
Stream size                              : 68.8 KiB (0%)
Title                                    : Full
Language                                 : Ukrainian
Default                                  : Yes
Forced                                   : No

Text #2
ID                                       : 6
Format                                   : UTF-8
Codec ID                                 : S_TEXT/UTF8
Codec ID/Info                            : UTF-8 Plain Text
Duration                                 : 1 h 56 min
Bit rate                                 : 49 b/s
Count of elements                        : 1132
Stream size                              : 42.2 KiB (0%)
Title                                    : Full
Language                                 : English
Default                                  : No
Forced                                   : No
Світлини



2. Дванадцять друзiв Оушена / Ocean's Twelwe (2004) 1080p H.265 Ukr/Eng | Sub Ukr/Eng
Дванадцять друзiв Оушена / Ocean's Twelwe (2004) 1080p H.265 Ukr/Eng | Sub Ukr/Eng

Друзі Оушена. Квадрологія / Ocean's Friends. Quadrilogy (2001-2018) 1080p H.265 Ukr/Eng | Sub Ukr/Eng


Жанр: комедія, кримінал, трилер
Країна: США
Кінокомпанія: Warner Bros.
Режисер: Стівен Содерберґ / Steven Soderbergh
Актори: Джордж Клуні/George Clooney/, Бред Пітт/Brad Pitt/, Джулія Робертс/Julia Roberts/, Енді Гарсіа/Andy Garcia/, Метт Деймон/Matt Damon/, Берні Мак/Bernie Mac

Сюжет:
І знову гангстер Денні Оушен збирає свою банду професійних злодіїв і шахраїв, в якій з'явилися і нові особи. На цей раз вони задумали провернути три пограбування в найбільших європейських столицях. Можливо, для цього банді придйеться разділитися на три групи.
Тим часом власник казино Террі Бенедикт, якого Оушен зі своїми приятелями обчистив в Лас-Вегасі, прагне помсти і буквально висить в них на хвості… Він злий і намагається наздогнати банду, за якою також полюють агенти Європолу і таємничий французький конкурент по імені Діннер Джекет…

Тривалість: 02:05:18
Якість:
Відео:
кодек: H.265 (HEVC)
розмір кадру: 1920 x 800
бітрейт: 11 712 кб/с
бітова глибина: 10 біт
Увага! Перед завантаженням переконайтесь, що ваш пристрій відтворення (та/або ПЗ) підтримує H.265 (HEVC)

Аудіо # 1:
мова: українська
переклад: багатоголосий закадровий , ,
кодек: AC-3 2.0
бітрейт: 192 кб/с

Аудіо # 2:
мова: англійська
переклад: оригінал
кодек: AC-3 5.1
бітрейт: 448 кб/с

Субтитри # 1:
мова: українська (Full),
тип: програмні (м'які)
формат: *.srt

Субтитри # 2:
мова: англійська (Full),
тип: програмні (м'які)
формат: *.srt


Info
Код:
General
Unique ID                                : 248881779527876469879479853644363333606 (0xBB3CE31E431470F6C6110DF4BFEFFFE6)
Complete name                            : F:\Video\Ocean's Friends. Quadrilogy (2001-2018) 1080p H.265 [UKR_ENG] [Hurtom]\2. Ocean's Twelve (2004) 1080p H.265 [UKR_ENG] [Hurtom].
Format                                   :
Format version                           : Version 4 / Version 2
File size                                : 10.8 GiB
Duration                                 : 2 h 5 min
Overall bit rate                         : 12.4 Mb/s
Movie name                               : Ocean's Twelve (2004)
Encoded date                             : UTC 2019-03-18 20:57:06
Writing application                      : v20.0.0 ('I Am The Sun') 64-bit
Writing library                          : libebml v1.3.5 + v1.4.8
Cover                                    : Yes
Attachments                              : Cover.jpg

Video
ID                                       : 1
Format                                   : HEVC
Format/Info                              : High Efficiency Video Coding
Format profile                           : Main [email protected]@High
Codec ID                                 : V_MPEGH/ISO/HEVC
Duration                                 : 2 h 5 min
Bit rate                                 : 11.7 Mb/s
Width                                    : 1 920 pixels
Height                                   : 800 pixels
Display aspect ratio                     : 2.40:1
Frame rate mode                          : Constant
Frame rate                               : 23.976 (24000/1001) FPS
Color space                              : YUV
Chroma subsampling                       : 4:2:0
Bit depth                                : 10 bits
Bits/(Pixel*Frame)                       : 0.318
Stream size                              : 10.2 GiB (95%)
Title                                    : Ocean's Twelve (2004)
Writing library                          : x265 2.9+9-f74003e88622:[Windows][GCC 8.2.0][64 bit] 10bit
Encoding settings                        : cpuid=1111039 / frame-threads=9 / numa-pools=8 / wpp / no-pmode / no-pme / no-psnr / no-ssim / log-level=3 / input-csp=1 / input-res=1920x800 / interlace=0 / total-frames=0 / level-idc=51 / high-tier=1 / uhd-bd=0 / ref=5 / allow-non-conformance / no-repeat-headers / annexb / no-aud / no-hrd / info / hash=0 / no-temporal-layers / open-gop / min-keyint=23 / keyint=250 / gop-lookahead=0 / bframes=8 / b-adapt=2 / b-pyramid / bframe-bias=0 / rc-lookahead=40 / lookahead-slices=5 / scenecut=40 / radl=0 / no-intra-refresh / ctu=64 / min-cu-size=8 / no-rect / no-amp / max-tu-size=32 / tu-inter-depth=1 / tu-intra-depth=1 / limit-tu=0 / rdoq-level=2 / dynamic-rd=0.00 / no-ssim-rd / signhide / no-tskip / nr-intra=0 / nr-inter=0 / no-constrained-intra / no-strong-intra-smoothing / max-merge=2 / limit-refs=3 / no-limit-modes / me=3 / subme=7 / merange=57 / temporal-mvp / weightp / weightb / no-analyze-src-pics / deblock=-2:-2 / no-sao / no-sao-non-deblock / rd=4 / no-early-skip / rskip / no-fast-intra / no-tskip-fast / no-cu-lossless / no-b-intra / no-splitrd-skip / rdpenalty=0 / psy-rd=2.00 / psy-rdoq=1.00 / no-rd-refine / no-lossless / cbqpoffs=0 / crqpoffs=0 / rc=crf / crf=19.0 / qcomp=0.65 / qpstep=2 / stats-write=0 / stats-read=0 / vbv-maxrate=50000 / vbv-bufsize=50000 / vbv-init=0.9 / crf-max=0.0 / crf-min=0.0 / ipratio=1.40 / pbratio=1.30 / aq-mode=1 / aq-strength=1.00 / cutree / zone-count=0 / no-strict-cbr / qg-size=32 / no-rc-grain / qpmax=69 / qpmin=0 / no-const-vbv / sar=1 / overscan=0 / videoformat=5 / range=0 / colorprim=1 / transfer=1 / colormatrix=1 / chromaloc=0 / display-window=0 / max-cll=0,0 / min-luma=0 / max-luma=1023 / log2-max-poc-lsb=8 / vui-timing-info / vui-hrd-info / slices=1 / no-opt-qp-pps / no-opt-ref-list-length-pps / no-multi-pass-opt-rps / scenecut-bias=0.05 / no-opt-cu-delta-qp / no-aq-motion / no-hdr / no-hdr-opt / no-dhdr10-opt / no-idr-recovery-sei / analysis-reuse-level=5 / scale-factor=0 / refine-intra=0 / refine-inter=0 / refine-mv=0 / no-limit-sao / ctu-info=0 / no-lowpass-dct / refine-mv-type=0 / copy-pic=1 / max-ausize-factor=1.0 / no-dynamic-refine / no-single-sei
Default                                  : Yes
Forced                                   : No
Color range                              : Limited
Color primaries                          : BT.709
Transfer characteristics                 : BT.709
Matrix coefficients                      : BT.709

Audio #1
ID                                       : 2
Format                                   : AC-3
Format/Info                              : Audio Coding 3
Codec ID                                 : A_AC3
Duration                                 : 2 h 5 min
Bit rate mode                            : Constant
Bit rate                                 : 192 kb/s
Channel(s)                               : 2 channels
Channel positions                        : Front: L R
Sampling rate                            : 48.0 kHz
Frame rate                               : 31.250 FPS (1536 SPF)
Bit depth                                : 16 bits
Compression mode                         : Lossy
Stream size                              : 172 MiB (2%)
Title                                    : БЗ - ICTV, Novy Kanal, Inter
Language                                 : Ukrainian
Service kind                             : Complete Main
Default                                  : Yes
Forced                                   : Yes

Audio #2
ID                                       : 3
Format                                   : AC-3
Format/Info                              : Audio Coding 3
Codec ID                                 : A_AC3
Duration                                 : 2 h 5 min
Bit rate mode                            : Constant
Bit rate                                 : 448 kb/s
Channel(s)                               : 6 channels
Channel positions                        : Front: L C R, Side: L R, LFE
Sampling rate                            : 48.0 kHz
Frame rate                               : 31.250 FPS (1536 SPF)
Bit depth                                : 16 bits
Compression mode                         : Lossy
Stream size                              : 402 MiB (4%)
Title                                    : Original
Language                                 : English
Service kind                             : Complete Main
Default                                  : No
Forced                                   : No

Text #1
ID                                       : 4
Format                                   : UTF-8
Codec ID                                 : S_TEXT/UTF8
Codec ID/Info                            : UTF-8 Plain Text
Duration                                 : 2 h 4 min
Bit rate                                 : 90 b/s
Count of elements                        : 1480
Stream size                              : 82.7 KiB (0%)
Title                                    : Full
Language                                 : Ukrainian
Default                                  : Yes
Forced                                   : No

Text #2
ID                                       : 5
Format                                   : UTF-8
Codec ID                                 : S_TEXT/UTF8
Codec ID/Info                            : UTF-8 Plain Text
Duration                                 : 1 h 57 min
Bit rate                                 : 66 b/s
Count of elements                        : 1448
Stream size                              : 57.8 KiB (0%)
Title                                    : Full
Language                                 : English
Default                                  : No
Forced                                   : No

Menu
00:00:00.000                             : :Rusty and Isabel
00:03:07.228                             : :Mr. and Mrs. Diaz
00:08:09.822                             : :Terry Visits the Gang
00:14:52.057                             : :"You Have Two Weeks"
00:16:39.999                             : :"How Much Does Everybody Owe?"
00:22:04.489                             : :"Amsterdam It Is"
00:24:09.614                             : :Linus Meets Matsui
00:27:16.134                             : :Planning the Heist
00:30:58.523                             : :Raising the House
00:36:16.007                             : :Isabel at the Crime Scene
00:39:37.708                             : :Love at First Sight
00:41:31.989                             : :Second Place
00:45:17.548                             : :Isabel Questions Rusty
00:51:16.406                             : :Bagman's Travels
00:56:44.234                             : :The Night Fox
00:58:47.690                             : :Danny and Tolour Make a Bet
01:02:00.216                             : :Nagel Leaves a Message
01:03:33.309                             : :Rome
01:05:53.449                             : :Scouting the Museum
01:09:49.018                             : :Rusty Surprises Isabel
01:13:10.552                             : :"Andre Ciment and Isabel"
01:15:32.027                             : :Wake-Up Call
01:17:25.140                             : :Day Off
01:20:23.819                             : :Linus Takes Charge
01:22:50.966                             : :Tess to the Rescue
01:26:02.323                             : :Surprise Visit
01:30:49.444                             : :At the Museum
01:35:19.547                             : :Section Chief Molly Star
01:38:13.721                             : :Caravan
01:41:21.408                             : :Isabel's Big Decision
01:44:19.753                             : :Guests on the Veranda
01:46:35.389                             : :Laser Dance
01:48:38.512                             : :A Very Elaborate Show
01:53:47.320                             : :"Whose House Is This?
01:57:24.537                             : :Monday Night
01:58:47.620                             : :End Titles
Світлини



3. Тринадцять друзiв Оушена / Ocean's Thirteen (2007) 1080p H.265 3xUkr/Eng | Sub Ukr/Eng
Тринадцять друзiв Оушена / Ocean's Thirteen (2007) 1080p H.265 3xUkr/Eng | Sub Ukr/Eng

Друзі Оушена. Квадрологія / Ocean's Friends. Quadrilogy (2001-2018) 1080p H.265 Ukr/Eng | Sub Ukr/Eng


Жанр: комедія, кримінал, трилер
Країна: США
Кінокомпанія: Warner Bros.
Режисер: Стівен Содерберґ / Steven Soderbergh
Актори: Джордж Клуні /George Clooney/, Бред Пітт /Brad Pitt/, Метт Деймон /Matt Damon/, Еліот Гоулд /Elliott Gould/, Берні Мак /Bernie Mac/, Аль Пачіно /Al Pacino

Сюжет:
У Денні Оушена і його команди могла бути лише одна причина, згідно якої вони готові провернути саме амбиційне і ризиковане пограбування казино в їх житті, — заради захисту одного із «своїх».
Коли безжальний власник казино Віллі Бенк підставляє одного з одинадцять друзів Оушена, — а саме Рубена Тишкоффа, — Денні і його вірним соратникам нічого не залишається, як знову об'єднатися, щоби перевірити, чи взмозі вони ще зірвати «банк».

Тривалість: 02:02:09
Якість:
Відео:
кодек: H.265 (HEVC)
розмір кадру: 1920 x 800
бітрейт: 8 668 кб/с
бітова глибина: 10 біт
Увага! Перед завантаженням переконайтесь, що ваш пристрій відтворення (та/або ПЗ) підтримує H.265 (HEVC)

Аудіо # 1:
мова: українська
переклад: багатоголосий закадровий
кодек: AC-3 2.0
бітрейт: 192 кб/с

Аудіо # 2:
мова: українська
переклад: багатоголосий закадровий
кодек: AC-3 2.0
бітрейт: 192 кб/с

Аудіо # 3:
мова: українська
переклад: багатоголосий закадровий
кодек: AC-3 2.0
бітрейт: 192 кб/с

Аудіо # 4:
мова: англійська
переклад: оригінал
кодек: AC-3 5.1
бітрейт: 640 кб/с

Субтитри # 1:
мова: українська (Full),
тип: програмні (м'які)
формат: *.srt

Субтитри # 2:
мова: англійська (Full),
тип: програмні (м'які)
формат: *.srt


Info
Код:
General
Unique ID                                : 13564529749815721973817757554343925277 (0xA346EF37A36560D204AF6E189C3D61D)
Complete name                            : F:\Video\Ocean's Friends. Quadrilogy (2001-2018) 1080p H.265 [UKR_ENG] [Hurtom]\3. Ocean's Thirteen (2007) 1080p H.265 [3xUKR_ENG] [Hurtom].
Format                                   :
Format version                           : Version 4 / Version 2
File size                                : 8.44 GiB
Duration                                 : 2 h 2 min
Overall bit rate                         : 9 886 kb/s
Movie name                               : Ocean's Thirteen (2007)
Encoded date                             : UTC 2019-03-18 21:21:09
Writing application                      : v20.0.0 ('I Am The Sun') 64-bit
Writing library                          : libebml v1.3.5 + v1.4.8
Cover                                    : Yes
Attachments                              : Cover.jpg

Video
ID                                       : 1
Format                                   : HEVC
Format/Info                              : High Efficiency Video Coding
Format profile                           : Main [email protected]@High
Codec ID                                 : V_MPEGH/ISO/HEVC
Duration                                 : 2 h 2 min
Bit rate                                 : 8 667 kb/s
Width                                    : 1 920 pixels
Height                                   : 800 pixels
Display aspect ratio                     : 2.40:1
Frame rate mode                          : Constant
Frame rate                               : 23.976 (24000/1001) FPS
Color space                              : YUV
Chroma subsampling                       : 4:2:0
Bit depth                                : 10 bits
Bits/(Pixel*Frame)                       : 0.235
Stream size                              : 7.40 GiB (88%)
Title                                    : Ocean's Thirteen (2007)
Writing library                          : x265 2.9+9-f74003e88622:[Windows][GCC 8.2.0][64 bit] 10bit
Encoding settings                        : cpuid=1111039 / frame-threads=9 / numa-pools=8 / wpp / no-pmode / no-pme / no-psnr / no-ssim / log-level=3 / input-csp=1 / input-res=1920x800 / interlace=0 / total-frames=0 / level-idc=51 / high-tier=1 / uhd-bd=0 / ref=5 / allow-non-conformance / no-repeat-headers / annexb / no-aud / no-hrd / info / hash=0 / no-temporal-layers / open-gop / min-keyint=23 / keyint=250 / gop-lookahead=0 / bframes=8 / b-adapt=2 / b-pyramid / bframe-bias=0 / rc-lookahead=40 / lookahead-slices=5 / scenecut=40 / radl=0 / no-intra-refresh / ctu=64 / min-cu-size=8 / no-rect / no-amp / max-tu-size=32 / tu-inter-depth=1 / tu-intra-depth=1 / limit-tu=0 / rdoq-level=2 / dynamic-rd=0.00 / no-ssim-rd / signhide / no-tskip / nr-intra=0 / nr-inter=0 / no-constrained-intra / no-strong-intra-smoothing / max-merge=2 / limit-refs=3 / no-limit-modes / me=3 / subme=7 / merange=57 / temporal-mvp / weightp / weightb / no-analyze-src-pics / deblock=-2:-2 / no-sao / no-sao-non-deblock / rd=4 / no-early-skip / rskip / no-fast-intra / no-tskip-fast / no-cu-lossless / no-b-intra / no-splitrd-skip / rdpenalty=0 / psy-rd=2.00 / psy-rdoq=1.00 / no-rd-refine / no-lossless / cbqpoffs=0 / crqpoffs=0 / rc=crf / crf=20.0 / qcomp=0.65 / qpstep=2 / stats-write=0 / stats-read=0 / vbv-maxrate=50000 / vbv-bufsize=50000 / vbv-init=0.9 / crf-max=0.0 / crf-min=0.0 / ipratio=1.40 / pbratio=1.30 / aq-mode=1 / aq-strength=1.00 / cutree / zone-count=0 / no-strict-cbr / qg-size=32 / no-rc-grain / qpmax=69 / qpmin=0 / no-const-vbv / sar=1 / overscan=0 / videoformat=5 / range=0 / colorprim=1 / transfer=1 / colormatrix=1 / chromaloc=0 / display-window=0 / max-cll=0,0 / min-luma=0 / max-luma=1023 / log2-max-poc-lsb=8 / vui-timing-info / vui-hrd-info / slices=1 / no-opt-qp-pps / no-opt-ref-list-length-pps / no-multi-pass-opt-rps / scenecut-bias=0.05 / no-opt-cu-delta-qp / no-aq-motion / no-hdr / no-hdr-opt / no-dhdr10-opt / no-idr-recovery-sei / analysis-reuse-level=5 / scale-factor=0 / refine-intra=0 / refine-inter=0 / refine-mv=0 / no-limit-sao / ctu-info=0 / no-lowpass-dct / refine-mv-type=0 / copy-pic=1 / max-ausize-factor=1.0 / no-dynamic-refine / no-single-sei
Default                                  : Yes
Forced                                   : No
Color range                              : Limited
Color primaries                          : BT.709
Transfer characteristics                 : BT.709
Matrix coefficients                      : BT.709

Audio #1
ID                                       : 2
Format                                   : AC-3
Format/Info                              : Audio Coding 3
Codec ID                                 : A_AC3
Duration                                 : 2 h 2 min
Bit rate mode                            : Constant
Bit rate                                 : 192 kb/s
Channel(s)                               : 2 channels
Channel positions                        : Front: L R
Sampling rate                            : 48.0 kHz
Frame rate                               : 31.250 FPS (1536 SPF)
Bit depth                                : 16 bits
Compression mode                         : Lossy
Stream size                              : 168 MiB (2%)
Title                                    : БЗ - ICTV
Language                                 : Ukrainian
Service kind                             : Complete Main
Default                                  : Yes
Forced                                   : Yes

Audio #2
ID                                       : 3
Format                                   : AC-3
Format/Info                              : Audio Coding 3
Codec ID                                 : A_AC3
Duration                                 : 2 h 2 min
Bit rate mode                            : Constant
Bit rate                                 : 192 kb/s
Channel(s)                               : 2 channels
Channel positions                        : Front: L R
Sampling rate                            : 48.0 kHz
Frame rate                               : 31.250 FPS (1536 SPF)
Bit depth                                : 16 bits
Compression mode                         : Lossy
Stream size                              : 168 MiB (2%)
Title                                    : БЗ - Novy Kanal
Language                                 : Ukrainian
Service kind                             : Complete Main
Default                                  : No
Forced                                   : No

Audio #3
ID                                       : 4
Format                                   : AC-3
Format/Info                              : Audio Coding 3
Codec ID                                 : A_AC3
Duration                                 : 2 h 2 min
Bit rate mode                            : Constant
Bit rate                                 : 192 kb/s
Channel(s)                               : 2 channels
Channel positions                        : Front: L R
Sampling rate                            : 48.0 kHz
Frame rate                               : 31.250 FPS (1536 SPF)
Bit depth                                : 16 bits
Compression mode                         : Lossy
Stream size                              : 168 MiB (2%)
Title                                    : БЗ - Inter
Language                                 : Ukrainian
Service kind                             : Complete Main
Default                                  : No
Forced                                   : No

Audio #4
ID                                       : 5
Format                                   : AC-3
Format/Info                              : Audio Coding 3
Codec ID                                 : A_AC3
Duration                                 : 2 h 2 min
Bit rate mode                            : Constant
Bit rate                                 : 640 kb/s
Channel(s)                               : 6 channels
Channel positions                        : Front: L C R, Side: L R, LFE
Sampling rate                            : 48.0 kHz
Frame rate                               : 31.250 FPS (1536 SPF)
Bit depth                                : 16 bits
Compression mode                         : Lossy
Stream size                              : 559 MiB (6%)
Title                                    : Original
Language                                 : English
Service kind                             : Complete Main
Default                                  : No
Forced                                   : No

Text #1
ID                                       : 6
Format                                   : UTF-8
Codec ID                                 : S_TEXT/UTF8
Codec ID/Info                            : UTF-8 Plain Text
Duration                                 : 2 h 1 min
Bit rate                                 : 91 b/s
Count of elements                        : 1389
Stream size                              : 81.0 KiB (0%)
Title                                    : Full
Language                                 : Ukrainian
Default                                  : Yes
Forced                                   : No

Text #2
ID                                       : 7
Format                                   : UTF-8
Codec ID                                 : S_TEXT/UTF8
Codec ID/Info                            : UTF-8 Plain Text
Duration                                 : 2 h 1 min
Bit rate                                 : 65 b/s
Count of elements                        : 1367
Stream size                              : 57.9 KiB (0%)
Title                                    : Full
Language                                 : English
Default                                  : No
Forced                                   : No

Menu
00:00:00.000                             : :Anything for Reuben
00:04:42.282                             : :Willy Amends the Deal
00:07:38.458                             : :The Guys Offer Willy 'a Billy Martin'
00:10:06.105                             : :Showing Nagel the Big Picture
00:13:11.957                             : :The Big Picture, Continued
00:17:26.879                             : :Fixing Blackjack, Slots, Roulette
00:21:30.122                             : :The Greco Player Tracker
00:24:26.465                             : :The Exit Strategy
00:27:42.827                             : :Rusty Does an 'irwin Allen'
00:30:36.501                             : :Prepping Room 1706; 'caravan'
00:32:38.289                             : :Kensington Chubb and the V.I.P. Check-In
00:39:01.839                             : :Livingston Explains Blackjack
00:42:08.859                             : :Complications
00:46:22.613                             : :Terry
00:49:41.645                             : :Mr. Weng and Lenny Pepperidge
00:51:43.266                             : :Yen Negotiates the Elevators
00:53:30.040                             : :Rusty and Danny Walk and Talk
00:58:10.820                             : :Oprah
01:00:49.646                             : :Finding a Way to the Diamond Room
01:07:24.206                             : :Terry and Willy: 'nuff Said
01:10:53.749                             : :Willy Makes Preparations
01:13:31.240                             : :The Grand Opening
01:18:04.513                             : :The Gilroy
01:21:22.377                             : :'the Fbi Is in the House'
01:26:11.166                             : :Blowing the Slots
01:28:35.476                             : :The Cartwheel
01:32:34.715                             : :Eugene's Trap Door
01:34:43.344                             : :First Tremor; 'you Felt It, Too?'
01:37:17.164                             : :Winning Montage
01:40:58.886                             : :The Exit Strategy, Cont'd.
01:43:09.683                             : :Aftermath
01:50:20.113                             : :'this Town'
01:52:35.415                             : :Camp to Belong
01:56:37.490                             : :End Titles
Світлини



4. Вісім подруг Оушена / Ocean's Eight (2018) 1080p H.265 Ukr/Eng | Sub Eng
Вісім подруг Оушена / Ocean's Eight (2018) 1080p H.265 Ukr/Eng | Sub Eng

Друзі Оушена. Квадрологія / Ocean's Friends. Quadrilogy (2001-2018) 1080p H.265 Ukr/Eng | Sub Ukr/Eng


Жанр: бойовик, комедія, кримінальний, трилер
Країна: США
Кінокомпанія: Warner Bros., Village Roadshow Pictures, Rahway Road Productions
Режисер: Гері Росс
Актори: Сандра Буллок, Кейт Бланшетт, Енн Гетевей, Гелена Бонем Картер, Ріанна, Сара Полсон, Мінді Кейлінг, Річард Армітедж, Джеймс Корден, Аквафіна

Сюжет:
Крадіжка – це в генах. Так Деббі, сестра всесвітньо відомого бандита Денні Оушена, 5 років 8 місяців і 12 днів планувала найбільшу справу у своєму житті. Їй потрібно всього лише зібрати команду з таких же відчайдухів-професіоналів, щоби вкрасти діамантове кольє ціною в 150 мільйонів доларів. Найбільша проблема цієї задумки полягає в тому, що ця коштовність буде на очах у сотень людей на заході в музеї "Метрополітен" у Нью-Йорку. Щоб все вийшло, план Деббі повинен втілитися в життя ідеально, без найменшої помилки.

Тривалість: 01:50:09
Якість:
Відео:
кодек: H.265 (HEVC)
розмір кадру: 1920 x 804
бітрейт: 5 702 кб/с
бітова глибина: 10 біт
Увага! Перед завантаженням переконайтесь, що ваш пристрій відтворення (та/або ПЗ) підтримує H.265 (HEVC)

Аудіо # 1:
мова: українська
переклад: професійний дубльований
кодек: AC-3 2.0
бітрейт: 192 кб/с

Аудіо # 2:
мова: англійська
переклад: оригінал
кодек: AC-3 5.1
бітрейт: 448 кб/с

Субтитри # 1:
мова: українська (Forced),
тип: програмні (м'які)
формат: *.srt

Субтитри # 2:
мова: англійська (Full),
тип: програмні (м'які)
формат: *.srt

Субтитри # 3:
мова: англійська (SDH),
тип: програмні (м'які)
формат: *.srt


Info
Код:
General
Unique ID                                : 196189386361436210684381104409816189554 (0x9398B38EB7A76B0A5B513D34C3DDCA72)
Complete name                            : F:\Video\Ocean's Friends. Quadrilogy (2001-2018) 1080p H.265 [UKR_ENG] [Hurtom]\4. Ocean's Eight (2018) 1080p H.265 [UKR_ENG] [Hurtom].
Format                                   :
Format version                           : Version 4 / Version 2
File size                                : 4.88 GiB
Duration                                 : 1 h 50 min
Overall bit rate                         : 6 345 kb/s
Movie name                               : Ocean's Eight (2018)
Encoded date                             : UTC 2018-09-03 15:52:27
Writing application                      : v20.0.0 ('I Am The Sun') 32-bit
Writing library                          : libebml v1.3.5 + v1.4.8
Cover                                    : Yes
Attachments                              : cover

Video
ID                                       : 1
Format                                   : HEVC
Format/Info                              : High Efficiency Video Coding
Format profile                           : Main [email protected]@High
Codec ID                                 : V_MPEGH/ISO/HEVC
Duration                                 : 1 h 50 min
Bit rate                                 : 5 702 kb/s
Width                                    : 1 920 pixels
Height                                   : 804 pixels
Display aspect ratio                     : 2.40:1
Frame rate mode                          : Constant
Frame rate                               : 23.976 (24000/1001) FPS
Color space                              : YUV
Chroma subsampling                       : 4:2:0 (Type 0)
Bit depth                                : 10 bits
Bits/(Pixel*Frame)                       : 0.154
Stream size                              : 4.39 GiB (90%)
Writing library                          : x265 2.8+12-9cde2c278464:[Windows][GCC 7.3.0][64 bit] 10bit
Encoding settings                        : cpuid=1049071 / frame-threads=4 / wpp / no-pmode / no-pme / no-psnr / no-ssim / log-level=2 / input-csp=1 / input-res=1920x804 / interlace=0 / total-frames=0 / level-idc=51 / high-tier=1 / uhd-bd=0 / ref=5 / no-allow-non-conformance / no-repeat-headers / annexb / no-aud / no-hrd / info / hash=0 / no-temporal-layers / open-gop / min-keyint=23 / keyint=240 / gop-lookahead=0 / bframes=8 / b-adapt=2 / b-pyramid / bframe-bias=0 / rc-lookahead=40 / lookahead-slices=5 / scenecut=40 / radl=0 / no-intra-refresh / ctu=64 / min-cu-size=8 / rect / no-amp / max-tu-size=32 / tu-inter-depth=3 / tu-intra-depth=3 / limit-tu=4 / rdoq-level=2 / dynamic-rd=0.00 / no-ssim-rd / signhide / no-tskip / nr-intra=0 / nr-inter=0 / no-constrained-intra / no-strong-intra-smoothing / max-merge=3 / limit-refs=3 / limit-modes / me=3 / subme=7 / merange=57 / temporal-mvp / weightp / weightb / no-analyze-src-pics / deblock=-3:-3 / no-sao / no-sao-non-deblock / rd=4 / no-early-skip / rskip / no-fast-intra / no-tskip-fast / no-cu-lossless / no-b-intra / no-splitrd-skip / rdpenalty=0 / psy-rd=2.00 / psy-rdoq=1.00 / no-rd-refine / no-lossless / cbqpoffs=0 / crqpoffs=0 / rc=crf / crf=18.0 / qcomp=0.60 / qpstep=4 / stats-write=0 / stats-read=0 / vbv-maxrate=160000 / vbv-bufsize=160000 / vbv-init=0.9 / crf-max=0.0 / crf-min=0.0 / ipratio=1.40 / pbratio=1.30 / aq-mode=1 / aq-strength=1.00 / cutree / zone-count=1 / zones: / start-frame=149820 / end-frame=158474 / qp=35 / no-strict-cbr / qg-size=32 / no-rc-grain / qpmax=69 / qpmin=0 / no-const-vbv / sar=0 / overscan=0 / videoformat=5 / range=0 / colorprim=2 / transfer=2 / colormatrix=1 / chromaloc=1 / chromaloc-top=0 / chromaloc-bottom=0 / display-window=0 / max-cll=0,0 / min-luma=0 / max-luma=1023 / log2-max-poc-lsb=8 / vui-timing-info / vui-hrd-info / slices=1 / no-opt-qp-pps / no-opt-ref-list-length-pps / no-multi-pass-opt-rps / scenecut-bias=0.05 / no-opt-cu-delta-qp / no-aq-motion / no-hdr / no-hdr-opt / no-dhdr10-opt / no-idr-recovery-sei / analysis-reuse-level=5 / scale-factor=0 / refine-intra=0 / refine-inter=0 / refine-mv=0 / no-limit-sao / ctu-info=0 / no-lowpass-dct / refine-mv-type=0 / copy-pic=1 / max-ausize-factor=1.0 / no-dynamic-refine / no-single-sei
Language                                 : English
Default                                  : Yes
Forced                                   : Yes
Color range                              : Limited
Matrix coefficients                      : BT.709

Audio #1
ID                                       : 2
Format                                   : AC-3
Format/Info                              : Audio Coding 3
Codec ID                                 : A_AC3
Duration                                 : 1 h 50 min
Bit rate mode                            : Constant
Bit rate                                 : 192 kb/s
Channel(s)                               : 2 channels
Channel positions                        : Front: L R
Sampling rate                            : 48.0 kHz
Frame rate                               : 31.250 FPS (1536 SPF)
Bit depth                                : 16 bits
Compression mode                         : Lossy
Stream size                              : 151 MiB (3%)
Title                                    : 2.0 @ 192 kbps
Language                                 : Ukrainian
Service kind                             : Complete Main
Default                                  : Yes
Forced                                   : Yes

Audio #2
ID                                       : 3
Format                                   : AC-3
Format/Info                              : Audio Coding 3
Codec ID                                 : A_AC3
Duration                                 : 1 h 50 min
Bit rate mode                            : Constant
Bit rate                                 : 448 kb/s
Channel(s)                               : 6 channels
Channel positions                        : Front: L C R, Side: L R, LFE
Sampling rate                            : 48.0 kHz
Frame rate                               : 31.250 FPS (1536 SPF)
Bit depth                                : 16 bits
Compression mode                         : Lossy
Stream size                              : 353 MiB (7%)
Title                                    : 5.1 @ 448 kbps
Language                                 : English
Service kind                             : Complete Main
Default                                  : No
Forced                                   : No

Text #1
ID                                       : 4
Format                                   : UTF-8
Codec ID                                 : S_TEXT/UTF8
Codec ID/Info                            : UTF-8 Plain Text
Duration                                 : 1 h 47 min
Bit rate                                 : 7 b/s
Count of elements                        : 114
Stream size                              : 5.64 KiB (0%)
Title                                    : Forced
Language                                 : Ukrainian
Default                                  : Yes
Forced                                   : Yes

Text #2
ID                                       : 5
Format                                   : UTF-8
Codec ID                                 : S_TEXT/UTF8
Codec ID/Info                            : UTF-8 Plain Text
Duration                                 : 1 h 43 min
Bit rate                                 : 66 b/s
Count of elements                        : 1778
Stream size                              : 50.7 KiB (0%)
Title                                    : Full
Language                                 : English
Default                                  : No
Forced                                   : No

Text #3
ID                                       : 6
Format                                   : UTF-8
Codec ID                                 : S_TEXT/UTF8
Codec ID/Info                            : UTF-8 Plain Text
Duration                                 : 1 h 49 min
Bit rate                                 : 69 b/s
Count of elements                        : 1762
Stream size                              : 55.7 KiB (0%)
Title                                    : SDH
Language                                 : English
Default                                  : No
Forced                                   : No

Menu
00:00:00.000                             : en:00:00:00.000
00:11:18.261                             : en:00:11:18.261
00:20:06.747                             : en:00:20:06.747
00:31:37.104                             : en:00:31:37.104
00:41:29.612                             : en:00:41:29.612
00:49:18.914                             : en:00:49:18.914
00:56:22.296                             : en:00:56:22.296
01:05:50.071                             : en:01:05:50.071
01:16:32.546                             : en:01:16:32.546
01:27:01.174                             : en:01:27:01.174
01:35:42.153                             : en:01:35:42.153
01:44:08.659                             : en:01:44:08.659
Світлини





Джерело: &
Особиста оцінка: 10 - без зайвих вагань рекомендую всім!


Срібний реліз (на рейтинг впливає 50% завантаженого)
 Трекер:    Зареєстрований   

Завантажити / скачати фільм українською



відео для новачків



 Зареєстрований:   2019-03-20 10:19
 Розмір:   33.95 GB 
 Оцінка фільму:   10/10 (Голосів: 8)
   
Kurya 
Свій


З нами з: 08.05.08
Востаннє: 05.12.19
Повідомлень: 66

2019-04-09 21:21  
Якщо у відео така ж якість, як на скріншотах, то це якийсь жах.
Nahalist 
Поважний учасник


З нами з: 12.12.13
Востаннє: 03.12.19
Повідомлень: 212

2019-08-26 13:39  
Дякую, але чи не буде h264? Маю на увазі таку ж квадрологію, щоб не окремі торренти качати, а одним?
Nehilok 
Новенький


З нами з: 20.10.14
Востаннє: 13.09.19
Повідомлень: 21

2019-08-30 12:18  
Nahalist написано:
Дякую, але чи не буде h264? Маю на увазі таку ж квадрологію, щоб не окремі торренти качати, а одним?

І я хо h264

Luzohid 
Свій


З нами з: 14.09.15
Востаннє: 24.11.19
Повідомлень: 58

2019-09-15 14:30  
Чуваки, чого ви паритесь, на Толоці 720р h264 є!!. Чому ви до цього H265 причепились.
Ваш часовий пояс: GMT + 2 Години

Нова тема   Відповісти