Красуня і чудовисько / Beauty and the Beast (1991) 1080p H.265 Ukr/Eng | Sub Ukr/Eng

Нові коментарі

Нова тема   Відповісти
Автор Повідомлення
Anonymous 







2019-03-20 09:16  
Красуня і чудовисько / Beauty and the Beast (1991) 1080p H.265 Ukr/Eng | Sub Ukr/Eng

Красуня і чудовисько / Beauty and the Beast (1991) 1080p H.265 Ukr/Eng | Sub Ukr/Eng


Жанр: анімація, мюзикл, казка, дитячий, сімейний
Країна: США
Кінокомпанія: Walt Disney Pictures, Silver Screen Partners IV, Walt Disney Feature Animation
Режисер: Гарі Труздейл, Кірк Уайз
Актори: Пейдж О'Хара, Роббі Бенсон, Річард Уайт, Джеррі Орбах, Девід Огден Стірс, Анжела Лансбері, Бредлі Пірс, Рекс Еверхарт, Джессі Корті, Хел Сміт та інші

Сюжет:
Фільм запрошує в зачарований замок, схований в нетрях темного чарівного лісу. Його господар - жахливе Чудовисько, якого всі бояться і ненавидять. Лише найпрекрасніша і смілива дівчина в світі на ім'я Белль здатна розгадати таємницю страшного, а насправді, дуже нещасного господаря замку і зруйнувати чари, що прирікають його на вічне перебування в шкурі страшного звіра.
Тільки та, хто розтопить лід у серці чудовиська і зможе полюбити його таким, яким воно є, зможе повернути йому людський вигляд. Але, щоб врятувати господаря зачарованого замку, Белль доведеться виступити проти всіх: адже жителі її села, підбурювані злобним мисливцем Гастоном, хочуть вбити горде і добре Чудовисько ...

Тривалість: 01:31:44
Якість:
Відео:
кодек: H.265 (HEVC)
розмір кадру: 1920 x 1080
бітрейт: 6 043 кб/с
бітова глибина: 10 біт
Увага! Перед завантаженням переконайтесь, що ваш пристрій відтворення (та/або ПЗ) підтримує H.265 (HEVC)

Аудіо # 1:
мова: українська
переклад: професійний дубльований
кодек: AC-3 5.1
бітрейт: 640 кб/с

Аудіо # 2:
мова: англійська
переклад: оригінал
кодек: 5.1
бітрейт: 1510 кб/с

Субтитри # 1:
мова: українська (Full),
тип: програмні (м'які)
формат: *.srt

Субтитри # 2:
мова: англійська (Full),
тип: програмні (м'які)
формат: *.srt

Субтитри # 3:
мова: англійська (SDH),
тип: програмні (м'які)
формат: *.srt


Info
Код:
General
Unique ID                                : 229785726616997903081199429952815499861 (0xACDF1F04E52EE19536831D9649280A55)
Complete name                            : F:\Video\Beauty and the Beast (1991) 1080p H.265 [UKR_ENG] [Hurtom].
Format                                   :
Format version                           : Version 4 / Version 2
File size                                : 5.25 GiB
Duration                                 : 1 h 31 min
Overall bit rate                         : 8 186 kb/s
Movie name                               : Beauty and the Beast (1991)
Encoded date                             : UTC 2019-03-20 07:50:41
Writing application                      : v20.0.0 ('I Am The Sun') 64-bit
Writing library                          : libebml v1.3.5 + v1.4.8
Cover                                    : Yes
Attachments                              : cover.jpg

Video
ID                                       : 1
Format                                   : HEVC
Format/Info                              : High Efficiency Video Coding
Format profile                           : Main [email protected]@High
Codec ID                                 : V_MPEGH/ISO/HEVC
Duration                                 : 1 h 31 min
Bit rate                                 : 6 043 kb/s
Width                                    : 1 920 pixels
Height                                   : 1 080 pixels
Display aspect ratio                     : 16:9
Frame rate mode                          : Constant
Frame rate                               : 23.976 (24000/1001) FPS
Color space                              : YUV
Chroma subsampling                       : 4:2:0
Bit depth                                : 10 bits
Bits/(Pixel*Frame)                       : 0.122
Stream size                              : 3.87 GiB (74%)
Title                                    : Beauty and the Beast (1991)
Writing library                          : x265 2.9+9-f74003e88622:[Windows][GCC 7.3.0][64 bit] 10bit
Encoding settings                        : cpuid=1111039 / frame-threads=13 / numa-pools=12 / wpp / no-pmode / no-pme / no-psnr / no-ssim / log-level=3 / input-csp=1 / input-res=1920x1080 / interlace=0 / total-frames=0 / level-idc=41 / high-tier=1 / uhd-bd=0 / ref=5 / allow-non-conformance / no-repeat-headers / annexb / no-aud / no-hrd / info / hash=0 / no-temporal-layers / no-open-gop / min-keyint=24 / keyint=240 / gop-lookahead=0 / bframes=7 / b-adapt=2 / b-pyramid / bframe-bias=0 / rc-lookahead=40 / lookahead-slices=6 / scenecut=40 / radl=0 / no-intra-refresh / ctu=64 / min-cu-size=8 / rect / amp / max-tu-size=32 / tu-inter-depth=1 / tu-intra-depth=1 / limit-tu=0 / rdoq-level=0 / dynamic-rd=0.00 / no-ssim-rd / signhide / no-tskip / nr-intra=0 / nr-inter=0 / no-constrained-intra / no-strong-intra-smoothing / max-merge=2 / limit-refs=3 / no-limit-modes / me=3 / subme=7 / merange=57 / temporal-mvp / weightp / no-weightb / no-analyze-src-pics / deblock=-3:-3 / no-sao / no-sao-non-deblock / rd=3 / no-early-skip / rskip / no-fast-intra / no-tskip-fast / no-cu-lossless / no-b-intra / no-splitrd-skip / rdpenalty=0 / psy-rd=2.00 / psy-rdoq=0.00 / no-rd-refine / no-lossless / cbqpoffs=0 / crqpoffs=0 / rc=crf / crf=18.0 / qcomp=0.70 / qpstep=4 / stats-write=0 / stats-read=0 / vbv-maxrate=50000 / vbv-bufsize=50000 / vbv-init=0.9 / crf-max=0.0 / crf-min=0.0 / ipratio=1.40 / pbratio=1.30 / aq-mode=1 / aq-strength=1.00 / cutree / zone-count=0 / no-strict-cbr / qg-size=32 / no-rc-grain / qpmax=69 / qpmin=0 / no-const-vbv / sar=1 / overscan=0 / videoformat=5 / range=0 / colorprim=1 / transfer=1 / colormatrix=1 / chromaloc=0 / display-window=0 / max-cll=0,0 / min-luma=0 / max-luma=1023 / log2-max-poc-lsb=8 / vui-timing-info / vui-hrd-info / slices=1 / no-opt-qp-pps / no-opt-ref-list-length-pps / no-multi-pass-opt-rps / scenecut-bias=0.05 / no-opt-cu-delta-qp / no-aq-motion / no-hdr / no-hdr-opt / no-dhdr10-opt / no-idr-recovery-sei / analysis-reuse-level=5 / scale-factor=0 / refine-intra=0 / refine-inter=0 / refine-mv=0 / no-limit-sao / ctu-info=0 / no-lowpass-dct / refine-mv-type=0 / copy-pic=1 / max-ausize-factor=1.0 / no-dynamic-refine / no-single-sei
Language                                 : English
Default                                  : Yes
Forced                                   : No
Color range                              : Limited
Color primaries                          : BT.709
Transfer characteristics                 : BT.709
Matrix coefficients                      : BT.709

Audio #1
ID                                       : 2
Format                                   : AC-3
Format/Info                              : Audio Coding 3
Codec ID                                 : A_AC3
Duration                                 : 1 h 31 min
Bit rate mode                            : Constant
Bit rate                                 : 640 kb/s
Channel(s)                               : 6 channels
Channel positions                        : Front: L C R, Side: L R, LFE
Sampling rate                            : 48.0 kHz
Frame rate                               : 31.250 FPS (1536 SPF)
Bit depth                                : 16 bits
Compression mode                         : Lossy
Stream size                              : 421 MiB (8%)
Title                                    : 5.1 @ 640 Kbps - UKR (ПД) | «LeDoyen Studio» - Blu-Ray CEE
Language                                 : Ukrainian
Service kind                             : Complete Main
Default                                  : Yes
Forced                                   : Yes

Audio #2
ID                                       : 3
Format                                   :
Format/Info                              : Digital Theater Systems
Codec ID                                 : A_DTS
Duration                                 : 1 h 31 min
Bit rate mode                            : Constant
Bit rate                                 : 1 509 kb/s
Channel(s)                               : 6 channels
Channel positions                        : Front: L C R, Side: L R, LFE
Sampling rate                            : 48.0 kHz
Frame rate                               : 93.750 FPS (512 SPF)
Bit depth                                : 24 bits
Compression mode                         : Lossy
Stream size                              : 990 MiB (18%)
Title                                    : Original - 5.1 @ 1.536 kbps (core of -MA)
Language                                 : English
Default                                  : No
Forced                                   : No

Text #1
ID                                       : 4
Format                                   : UTF-8
Codec ID                                 : S_TEXT/UTF8
Codec ID/Info                            : UTF-8 Plain Text
Duration                                 : 1 h 30 min
Bit rate                                 : 90 b/s
Count of elements                        : 1205
Stream size                              : 59.8 KiB (0%)
Title                                    : Full
Language                                 : Ukrainian
Default                                  : Yes
Forced                                   : No

Text #2
ID                                       : 5
Format                                   : UTF-8
Codec ID                                 : S_TEXT/UTF8
Codec ID/Info                            : UTF-8 Plain Text
Duration                                 : 1 h 24 min
Bit rate                                 : 66 b/s
Count of elements                        : 1195
Stream size                              : 41.3 KiB (0%)
Title                                    : Full
Language                                 : English
Default                                  : No
Forced                                   : No

Text #3
ID                                       : 6
Format                                   : UTF-8
Codec ID                                 : S_TEXT/UTF8
Codec ID/Info                            : UTF-8 Plain Text
Duration                                 : 1 h 28 min
Bit rate                                 : 70 b/s
Count of elements                        : 1462
Stream size                              : 45.8 KiB (0%)
Title                                    : SDH
Language                                 : English
Default                                  : No
Forced                                   : No

Menu
00:00:00.000                             : en:1. Once Upon a Time...
00:03:19.616                             : en:2. "Belle"
00:08:24.838                             : en:3. Gaston Stops Belle
00:13:50.955                             : en:4. Maurice Come Upon a Castle
00:17:34.887                             : en:5. Gaston Proposes to Belle
00:20:53.836                             : en:6. Belle Goes in Search of Maurice
00:25:34.241                             : en:7. Belle's New Home
00:27:04.748                             : en:8. "Gaston"
00:34:58.847                             : en:9. An Invitation to Dinner
00:38:28.848                             : en:10. "Be Our Guest"
00:43:50.795                             : en:11. The West Wing
00:49:25.629                             : en:12. Belle Tend to the Beast's Wounds
00:51:59.074                             : en:13. Something Special For Belle
00:53:59.736                             : en:14. "There's Something There"
00:57:26.652                             : en:15. "Human Again"
01:03:07.242                             : en:16. "Beauty and the Beast"
01:09:42.553                             : en:17. Gaston's Evil Plan in Action
01:11:28.451                             : en:18. "Kill the Beast"
01:14:22.458                             : en:19. The Castle Under Attack
01:17:15.381                             : en:20. Gaston and the Beast
01:21:48.904                             : en:21. The Transformation
01:26:00.322                             : en:22. End Credits
Світлини





Джерело: &
Особиста оцінка: 0 - не дивився


Срібний реліз (на рейтинг впливає 50% завантаженого)
 Трекер:    Зареєстрований   

Завантажити / скачати мультфільм українською



відео для новачків



 Зареєстрований:   2019-03-20 10:33
 Розмір:   5.25 GB 
 Оцінка мультфільму:   10/10 (Голосів: 3)
   
Ваш часовий пояс: GMT + 2 Години

Нова тема   Відповісти