Екстаз / Climax (2018) Remux 1080p Ukr/Fra | Sub Eng

Нові коментарі

Нова тема   Відповісти
Автор Повідомлення
Anonymous 







2019-03-20 00:22  
Екстаз / Climax (2018) Remux 1080p Ukr/Fra | Sub Eng

Екстаз / Climax (2018) Remux 1080p Ukr/Fra | Sub Eng
Альтернативні постери:

Екстаз / Climax (2018) Remux 1080p Ukr/Fra | Sub Eng

Екстаз / Climax (2018) Remux 1080p Ukr/Fra | Sub Eng

Екстаз / Climax (2018) Remux 1080p Ukr/Fra | Sub Eng


Жанр: драма, трилер
Країна: Франція





Кінокомпанія: Wild Bunch, Arte France Cinéma
Режисер: Гаспар Ное
Актори: Софія Бутелла, Кідді Смайл, Ромен Ґійєрмік, Сухейла Якуб, Леа Вламос, Клод-Еммануель Гаян-Малл, Жизелль Палмер, Тейлор Кастл, Теа Карла Шотт, Шерлін Темпл

Сюжет:
У всіх нас одне життя, і кожен сам вибирає, як його провести. Але воно, це життя – це справжня насолода, яка поступово відходить від нас. Від нашого народження до моменту, коли серце перестає битися, проходить дуже мало часу, хоча здається, що навпаки. В академії сучасного танцю випускний. Із цього приводу там зараз прощальна вечірка, яка зібрала справжніх любителів танцю. В один момент вечора всіх присутніх охопила справжня ейфорія. Насолода витає навколо та не дає нікому розслабитися ні на мить. Тільки танцюючи можна дати волю своїй енергії, перетворити її в мистецтво. Комусь ця вечірка принесе тільки екстаз, а хтось буде чекати настання ранку.


Тривалість: 01:36:30
Якість: Remux 1080p
Відео:
кодек:
розмір кадру: 1920x1080
бітрейт: 30 Мб/с

Аудіо # 1:
мова: українська
переклад: багатоголосий закадровий
кодек: 5.1
бітрейт: 384 кб/с

Аудіо # 2:
мова: французька
переклад: оригінал
кодек: 5.1
бітрейт: 640 кб/с

Аудіо # 3:
мова: французька
переклад: оригінал
кодек: -HD MA 5.1
бітрейт: 3958 кб/с

Джерело озвучення:


Субтитри:
мова: англійська
тип: програмні (м'які)
формат: *.srt
Info
General
Complete name : Climax (2018) Remux [UKR_FRA] [ViDeO_Hurtom].
Format :
Format version : Version 4
File size : 23.5 GiB
Duration : 1 h 36 min
Overall bit rate mode : Variable
Overall bit rate : 34.9 Mb/s
Movie name : Climax (2018) Remux [UKR_FRA] [ViDeO_Hurtom]
Encoded date : UTC 2019-03-19 21:50:39
Writing application : v30.1.0 ('Forever And More') 64-bit
Writing library : libebml v1.3.6 + v1.4.9

Video
ID : 1
Format : AVC
Format/Info : Advanced Video Codec
Format profile : [email protected]
Format settings : CABAC / 3 Ref Frames
Format settings, CABAC : Yes
Format settings, RefFrames : 3 frames
Codec ID : V_MPEG4/ISO/AVC
Duration : 1 h 36 min
Bit rate mode : Variable
Bit rate : 30.0 Mb/s
Maximum bit rate : 38.0 Mb/s
Width : 1 920 pixels
Height : 1 080 pixels
Display aspect ratio : 16:9
Frame rate mode : Constant
Frame rate : 23.976 (24000/1001) FPS
Color space : YUV
Chroma subsampling : 4:2:0
Bit depth : 8 bits
Scan type : Progressive
Bits/(Pixel*Frame) : 0.603
Stream size : 20.2 GiB (86%)
Title : Climax (2018) Remux 1080p NNMClub
Writing library : core 155 r2901 7d0ff22
Encoding settings : cabac=1 / ref=4 / deblock=1:-1:-1 / analyse=0x3:0x133 / me=umh / subme=10 / psy=1 / psy_rd=1.00:0.15 / mixed_ref=1 / me_range=24 / chroma_me=1 / trellis=2 / 8x8dct=1 / cqm=0 / deadzone=21,11 / fast_pskip=1 / chroma_qp_offset=-6 / threads=12 / lookahead_threads=1 / sliced_threads=0 / slices=4 / nr=0 / decimate=1 / interlaced=0 / bluray_compat=1 / stitchable=1 / constrained_intra=0 / bframes=3 / b_pyramid=1 / b_adapt=2 / b_bias=0 / direct=3 / weightb=1 / open_gop=1 / weightp=1 / keyint=24 / keyint_min=1 / scenecut=40 / intra_refresh=0 / rc_lookahead=24 / rc=2pass / mbtree=1 / bitrate=30000 / ratetol=0.1 / qcomp=0.60 / qpmin=0 / qpmax=69 / qpstep=4 / cplxblur=20.0 / qblur=0.5 / vbv_maxrate=38000 / vbv_bufsize=30000 / nal_hrd=vbr / filler=0 / ip_ratio=1.40 / aq=1:1.00
Language : French
Default : Yes
Forced : No
Color range : Limited
Color primaries : BT.709
Transfer characteristics : BT.709
Matrix coefficients : BT.709

Audio #1
ID : 2
Format : AC-3
Format/Info : Audio Coding 3
Commercial name : Dolby Digital
Codec ID : A_AC3
Duration : 1 h 36 min
Bit rate mode : Constant
Bit rate : 384 kb/s
Channel(s) : 6 channels
Channel layout : L R C LFE Ls Rs
Sampling rate : 48.0 kHz
Frame rate : 31.250 FPS (1536 SPF)
Bit depth : 16 bits
Compression mode : Lossy
Stream size : 265 MiB (1%)
Title : , 6 ch, 384 Кбт/с
Language : Ukrainian
Service kind : Complete Main
Default : Yes
Forced : No

Audio #2
ID : 3
Format : AC-3
Format/Info : Audio Coding 3
Commercial name : Dolby Digital
Codec ID : A_AC3
Duration : 1 h 36 min
Bit rate mode : Constant
Bit rate : 640 kb/s
Channel(s) : 6 channels
Channel layout : L R C LFE Ls Rs
Sampling rate : 48.0 kHz
Frame rate : 31.250 FPS (1536 SPF)
Bit depth : 16 bits
Compression mode : Lossy
Stream size : 442 MiB (2%)
Title : , 6 ch, 640 Кбт/с
Language : English
Service kind : Complete Main
Default : No
Forced : No

Audio #3
ID : 4
Format : XLL
Format/Info : Digital Theater Systems
Commercial name : -HD Master Audio
Codec ID : A_DTS
Duration : 1 h 36 min
Bit rate mode : Variable
Bit rate : 3 958 kb/s
Channel(s) : 6 channels
Channel layout : C L R Ls Rs LFE
Sampling rate : 48.0 kHz
Frame rate : 93.750 FPS (512 SPF)
Bit depth : 24 bits
Compression mode : Lossless
Stream size : 2.67 GiB (11%)
Title : -HD MA, 6 ch, 3958 Кбт/с
Language : French
Default : No
Forced : No

Text
ID : 5
Format : UTF-8
Codec ID : S_TEXT/UTF8
Codec ID/Info : UTF-8 Plain Text
Duration : 1 h 32 min
Bit rate : 28 b/s
Count of elements : 1073
Stream size : 19.5 KiB (0%)
Title : Full
Language : English
Default : No
Forced : No

Menu
00:00:00.000 : en:Chapter 01
00:09:34.782 : en:Chapter 02
00:15:17.708 : en:Chapter 03
00:23:33.370 : en:Chapter 04
00:31:16.416 : en:Chapter 05
00:37:39.048 : en:Chapter 06
00:47:18.418 : en:Chapter 07
00:54:03.198 : en:Chapter 08
01:04:59.353 : en:Chapter 09
01:11:01.966 : en:Chapter 10
01:20:35.622 : en:Chapter 11
01:30:17.036 : en:Chapter 12
Скріншоти








Джерело:
Особиста оцінка: 0 - не дивився


Золотий реліз (завантажене не впливає на рейтинг)
 Трекер:    Зареєстрований   

Завантажити / скачати фільм українською



відео для новачків



 Зареєстрований:   2019-03-20 00:22
 Розмір:   23.55 GB 
 Оцінка фільму:   7.8/10 (Голосів: 4)
   
Інші релізи
   Екстаз / Climax (2018) 1080p H.265 Ukr/Fra | Sub Eng -Star-Lord-  5 / 0   3.93 GB   2019-03-22 23:52 
   Екстаз / Climax (2018) AVC Ukr/Fre | Sub Eng 11FrYkT  7 / 0   1.8 GB   2019-03-20 09:38 
   Екстаз / Climax (2018) 720p Ukr/Fre | Sub Eng 11FrYkT  2 / 0   5.77 GB   2019-03-20 09:35 
   Екстаз / Climax (2018) antik_2008  4 / 0   1.42 GB   2019-03-20 00:26 
   Екстаз / Climax (2018) 1080p Ukr/Fra | Sub Eng antik_2008  6 / 0   14.06 GB   2019-03-19 23:43 
Ваш часовий пояс: GMT + 2 Години

Нова тема   Відповісти