Saban's Могутні рейнджери / Power Rangers (2017) UHD Remux 4K 2160p HDR H.265 Ukr/Eng | Sub Eng

Нові коментарі

Нова тема   Відповісти
Автор Повідомлення
antik_2008 
Релізер і модератор відео


З нами з: 20.10.08
Востаннє: 19.04.19
Повідомлень: 1947

2019-03-19 15:43  
Saban's Могутні рейнджери / Power Rangers (2017) UHD Remux 4K 2160p HDR H.265 Ukr/Eng | Sub Eng

Saban's Могутні рейнджери / Power Rangers (2017) UHD Remux 4K 2160p HDR H.265 Ukr/Eng | Sub Eng


Жанр: бойовик, фантастика, фентезі
Країна: США, Канада





Кінокомпанія: Lionsgate, Temple Hill Entertainment
Режисер: Дін Ісраеліт
Актори: Дакре Монтгомері, АрДжей Сайлер, Наомі Скотт, Беккі Джі, Луді Лін, Браян Кренстон, Елізабет Бенкс, Білл Гадер, Анджалі Джай, Девід Денман

Сюжет:
П'ятеро різних підлітків-старшокласників випадково потрапили на таємничий інопланетний корабель. Там вони отримують суперсили і стають Могутніми Рейнджерами. Друзі думають, що це все просто якась гра і є нереальним. Але коли їх рідному місту Енджел Гроув загрожує інопланетна загроза, підлітки розуміють, що саме вони повинні врятувати його. Тільки разом Могутні Рейнджери зможуть здолати неймовірно сильного противника.


Тривалість: 02:03:58
Якість: 4K UltraHD Remux 2160p

Відео:
кодек: H.265 (HEVC)
розмір кадру: 3840x2160
бітрейт: 41,8 Мб/с
бітова глибина: 10 біт
кольоровий простір: BT.2020 (HDR)

Аудіо # 1:
мова: українська
переклад: професійний дубльований
кодек: 2.0
бітрейт: 192 кб/с
примітка: під час титрів є невеличкий епізод без перекладу (01:55:30 - 01:55:56)

Аудіо # 3:
мова: англійська
переклад: оригінал
кодек: TrueHD 7.1
бітрейт: 4893 кб/с

Субтитри (Forced):
мова: українська
тип: програмні (м'які)
формат: *.srt

Субтитри (Full, SDH, SDH-Colored):
мова: англійська
тип: програмні (м'які)
формат: *.srt

Джерело озвучення:
Info
Код:
General
Complete name                            : Power Rangers (2017) Remux 4K 2160p HDR H.265 [UKR_ENG] [ViDeO_Hurtom].
Format                                   :
Format version                           : Version 4
File size                                : 40.7 GiB
Duration                                 : 2 h 3 min
Overall bit rate mode                    : Variable
Overall bit rate                         : 47.0 Mb/s
Movie name                               : Power Rangers (2017) Remux 4K 2160p HDR H.265 [UKR_ENG] [ViDeO_Hurtom]
Encoded date                             : UTC 2019-03-19 10:04:38
Writing application                      : v30.1.0 ('Forever And More') 64-bit
Writing library                          : libebml v1.3.6 + v1.4.9

Video
ID                                       : 1
Format                                   : HEVC
Format/Info                              : High Efficiency Video Coding
Commercial name                          : HDR10
Format profile                           : Main [email protected]@High
Codec ID                                 : V_MPEGH/ISO/HEVC
Duration                                 : 2 h 3 min
Bit rate                                 : 41.8 Mb/s
Width                                    : 3 840 pixels
Height                                   : 2 160 pixels
Display aspect ratio                     : 16:9
Frame rate mode                          : Constant
Frame rate                               : 23.976 (24000/1001) FPS
Color space                              : YUV
Chroma subsampling                       : 4:2:0 (Type 2)
Bit depth                                : 10 bits
Bits/(Pixel*Frame)                       : 0.210
Stream size                              : 36.2 GiB (89%)
Title                                    : PWR_RANGERS_BD_UHD_HDR_REMUX-BLUEBIRD
Default                                  : Yes
Forced                                   : No
Color range                              : Limited
Color primaries                          : BT.2020
Transfer characteristics                 : PQ
Matrix coefficients                      : BT.2020 non-constant
Mastering display color primaries        : Display P3
Mastering display luminance              : min: 0.0050 cd/m2, max: 4000 cd/m2
Maximum Content Light Level              : 1000 cd/m2
Maximum Frame-Average Light Level        : 657 cd/m2

Audio #1
ID                                       : 2
Format                                   : AC-3
Format/Info                              : Audio Coding 3
Commercial name                          : Dolby Digital
Codec ID                                 : A_AC3
Duration                                 : 2 h 3 min
Bit rate mode                            : Constant
Bit rate                                 : 192 kb/s
Channel(s)                               : 2 channels
Channel layout                           : L R
Sampling rate                            : 48.0 kHz
Frame rate                               : 31.250 FPS (1536 SPF)
Bit depth                                : 16 bits
Compression mode                         : Lossy
Stream size                              : 170 MiB (0%)
Title                                    : 2.0 @ 192 Kbps
Language                                 : Ukrainian
Service kind                             : Complete Main
Default                                  : Yes
Forced                                   : No

Audio #2
ID                                       : 3
Format                                   : MLP FBA 16-ch
Format/Info                              : Meridian Lossless Packing FBA with 16-channel presentation
Commercial name                          : Dolby TrueHD with Dolby Atmos
Codec ID                                 : A_TRUEHD
Duration                                 : 2 h 3 min
Bit rate mode                            : Variable
Bit rate                                 : 4 893 kb/s
Maximum bit rate                         : 8 565 kb/s
Channel(s)                               : 8 channels
Channel layout                           : L R C LFE Ls Rs Lb Rb
Sampling rate                            : 48.0 kHz
Frame rate                               : 1 200.000 FPS (40 SPF)
Compression mode                         : Lossless
Delay relative to video                  : 1 ms
Stream size                              : 4.24 GiB (10%)
Title                                    : ATMOS TrueHD 7.1 @ 4565 Kbps
Language                                 : English
Default                                  : No
Forced                                   : No
Number of dynamic objects                : 15
Bed channel count                        : 1 channel
Bed channel configuration                : LFE

Text #1
ID                                       : 4
Format                                   : UTF-8
Codec ID                                 : S_TEXT/UTF8
Codec ID/Info                            : UTF-8 Plain Text
Duration                                 : 1 h 50 min
Bit rate                                 : 1 b/s
Count of elements                        : 36
Stream size                              : 1.59 KiB (0%)
Title                                    : Forced
Language                                 : Ukrainian
Default                                  : Yes
Forced                                   : No

Text #2
ID                                       : 5
Format                                   : UTF-8
Codec ID                                 : S_TEXT/UTF8
Codec ID/Info                            : UTF-8 Plain Text
Duration                                 : 1 h 52 min
Bit rate                                 : 56 b/s
Count of elements                        : 1623
Stream size                              : 46.7 KiB (0%)
Title                                    : Full
Language                                 : English
Default                                  : No
Forced                                   : No

Text #3
ID                                       : 6
Format                                   : UTF-8
Codec ID                                 : S_TEXT/UTF8
Codec ID/Info                            : UTF-8 Plain Text
Duration                                 : 1 h 55 min
Bit rate                                 : 67 b/s
Count of elements                        : 1889
Stream size                              : 56.9 KiB (0%)
Title                                    : SDH
Language                                 : English
Default                                  : No
Forced                                   : No

Text #4
ID                                       : 7
Format                                   : UTF-8
Codec ID                                 : S_TEXT/UTF8
Codec ID/Info                            : UTF-8 Plain Text
Duration                                 : 1 h 55 min
Bit rate                                 : 91 b/s
Count of elements                        : 1877
Stream size                              : 77.8 KiB (0%)
Title                                    : SDH-Colored
Language                                 : English
Default                                  : No
Forced                                   : No
Скріншоти






Джерело: &
Особиста оцінка: 8 - мені сподобалося

Підтримати купівлю інших фільмів можна тут.


Над доріжкою працювали: drakon87, Bohdan237, Sando7

Подяка за допомогу у створенні релізу : kinaxem

Увага! Перед завантаженням переконайтесь, що ваш пристрій відтворення (та/або ПЗ) підтримує H.265 (HEVC)


Золотий реліз (завантажене не впливає на рейтинг)
 Трекер:    Зареєстрований   

Завантажити / скачати фільм українською



відео для новачків



 Зареєстрований:   2019-03-19 15:43
 Розмір:   40.66 GB 
 Оцінка фільму:   7/10 (Голосів: 8)
   
Neolo 
Новенький


З нами з: 13.11.10
Востаннє: 13.04.19
Повідомлень: 18

2019-03-22 00:53  
Який сенс в 4К, коли ті чорні смуги обрізають пів картинки? Навіть на телеку в 82" всеодно їх видно. Це так дратує.
armogun 
Попереджень: 1
Попереджень: 1 


З нами з: 04.05.13
Востаннє: 18.04.19
Повідомлень: 452

2019-03-22 18:35  
Neolo
У мене на телеку не видно чорний - бо він чорний, як в амолед

Ваш часовий пояс: GMT + 2 Години

Нова тема   Відповісти