Джон Вік 2 (Джон Уік 2) / John Wick: Chapter Two (2017) Remux 1080p 2xUkr/Eng | Sub Eng

Нові коментарі

Нова тема   Відповісти
Автор Повідомлення
MakRA 
VIP


З нами з: 10.11.18
Востаннє: 15.12.19
Повідомлень: 606

2019-03-19 03:08  
Джон Вік 2 / John Wick: Chapter Two (2017) Remux 1080p 2xUkr/Eng | Sub Eng

Джон Вік 2 (Джон Уік 2) / John Wick: Chapter Two (2017) Remux 1080p 2xUkr/Eng | Sub Eng

Український постер:


Альтернативні обкладинки:




Жанр: екшн, кримінальний, трилер
Країна: США, Гонконг



Кінокомпанія: Summit Entertainment, TIK Films, Thunder Road Pictures, 87Eleven, Lionsgate
Режисер: Чед Стагелскі [Chad Stahelski]
Актори: Кіану Рівз [Keanu Reeves], Рікардо Самарціо [Riccardo Scamarcio], Ієн МакШейн [Ian McShane], Рубі Роуз [Ruby Rose], Коммон [Common], Клаудія Ґеріні [Claudia Gerini], Ленс Реддік [Lance Reddick], Лоуренс Фішборн [Laurence Fishburne], Тобіас Сеґал [Tobias Segal], Джон Леґуізамо [John Leguizamo], Девід Патрік Келлі [David Patrick Kelly], Петер Стормаре [Peter Stormare].

Сюжет: Відійшовши від справ, легендарний кілер Джон Вік знову змушений повернутися до своєї роботи. Колишній колега вирішив захопити владу над таємничою гільдією вбивць. Можливість керувати загоном супер-кілерів дасть йому величезну владу. Джон, який колись присягався, що завжди допоможе і підтримає друга, відправляється в Рим, де йому належить зіткнутися з найнебезпечнішим і смертоносним вбивцею ...

Цікаве про фільм:

-Для ролі Кіану Рівз три місяці проходив професійну підготовку. Його тренування складалися з дзюдо, бразильського джиу-джитсу, стрільби та водіння. Відеоролик, де Рівз демонструє своє майстерне володіння зброєю перед зйомками фільму, став дуже популярним в Інтернеті.
-Це перший спільний проект Кіану Рівза і Лоуренса Фішборна після фільму "Матриця: Революція" (2003).
-Ді-джей, що виступає на вечірці в Римі - "Le Castle Vania", який написав музику для обох фільмів про Джона Віка.
-За словами Рівза, якщо перший фільм можна умовно назвати "чорним поясом", то другий - "чорним поясом третього ступеня", де в арсеналі його персонажа з'являться нові прийоми джиу-джитсу і дзюдо.
-У першому фільмі про Джона Віка Вігго Тарасов згадує, як Джон одного разу убив трьох чоловіків олівцем. У цьому фільмі Джон дійсно вбиває двох кіллерів, використовуючи лише олівець.
-Кіану Рівз і Петер Стормаре вже працювали разом у кінострічках "Костянтин: Володар темряви" (2005) і "Кримінальна фішка від Генрі" (2010).


Нагороди та номінації:


Всього 4 перемоги та 6 номінацій.[/i]

2017 - BMI Film Music Award / Нагорода: Музика до фільму (Джоел Дж. Річард, Тайлер Бейтс, Lionsgate)
2017 - Davey Award / Нагорода: Розважальний соціальний контент (фільм "Джон Вік 2")
2017 - Golden Schmoes / Нагорода: Найкрутіший герой року (Джон Вік)
2017 - Золотий трейлер / Нагорода: Найкраща екшн-телевізійна реклама (Lionsgate, AV Squad)
2017 - Золотий трейлер / Номінація: Найкращий екшн (Lionsgate, AV Squad)
2018 - Імперія / Номінація: Найкращий трилер ("Джон Вік 2").


Тривалість: 02:02:22
Якість: Remux 1080p
Відео:
кодек:
розмір кадру: 1920 х 1080
бітрейт: 29.5 Мб/с

Аудіо # 1:
мова: українська
переклад: багатоголосий закадровий
кодек: 2.0 (стерео)
бітрейт: 192 кб/с

Аудіо # 2: Mic
мова: українська
переклад: професійний дубльований
кодек: 2.0
бітрейт: 192 кб/с

Аудіо # 3:
мова: англійська
переклад: оригінал
кодек: -MA 7.1
бітрейт: 4 214 кб/с

Аудіо # 4:
мова: англійська
переклад: оригінал
кодек: 5.1
бітрейт: 640 кб/с

Аудіо # 5:
мова: англійська
переклад: коментарі режисера Чада Стагельські і актора Кіану Рівза
кодек: 2.0
бітрейт: 224 кб/с

Субтитри:
мова: англійська
тип: програмні (м'які)
формат: *.srt

Збережено оригінальні розділи, як на Blu-ray.
Info
General
Unique ID : 16128584523761083300784990963165436620 (0xC22409C98F9F99B3779AA021F6E1ACC)
Complete name : F:\Екшн, бойовики\Джон Вік. Колекція\John Wick: Chapter Two (2017) Remux 1080p 2xUkr/Eng | Sub Eng [Hurtom].
Format :
Format version : Version 4 / Version 2
File size : 29.9 GiB
Duration : 2 h 2 min
Overall bit rate mode : Variable
Overall bit rate : 34.9 Mb/s
Movie name : Джон Вік 2 / John Wick: Chapter Two (2017) Remux 1080p 2xUkr/Eng | Sub Eng [Hurtom]
Encoded date : UTC 2019-03-18 22:58:26
Writing application : v25.0.0 ('Prog Noir') 64-bit
Writing library : libebml v1.3.6 + v1.4.9
Cover : Yes
Attachments : cover.jpg

Video
ID : 1
Format : AVC
Format/Info : Advanced Video Codec
Format profile : [email protected]
Format settings, CABAC : Yes
Format settings, RefFrames : 4 frames
Codec ID : V_MPEG4/ISO/AVC
Duration : 2 h 2 min
Bit rate mode : Variable
Bit rate : 29.5 Mb/s
Maximum bit rate : 37.0 Mb/s
Width : 1 920 pixels
Height : 1 080 pixels
Display aspect ratio : 16:9
Frame rate mode : Constant
Frame rate : 23.976 (24000/1001) FPS
Color space : YUV
Chroma subsampling : 4:2:0
Bit depth : 8 bits
Scan type : Progressive
Bits/(Pixel*Frame) : 0.593
Stream size : 25.2 GiB (84%)
Title : John Wick: Chapter Two (2017) Remux 1080p 2xUkr/Eng | Sub Eng [Hurtom]
Language : Ukrainian
Default : Yes
Forced : Yes

Audio #1
ID : 2
Format : AC-3
Format/Info : Audio Coding 3
Format settings, Endianness : Big
Codec ID : A_AC3
Duration : 2 h 2 min
Bit rate mode : Constant
Bit rate : 192 kb/s
Channel(s) : 2 channels
Channel positions : Front: L R
Sampling rate : 48.0 kHz
Frame rate : 31.250 FPS (1536 SPF)
Bit depth : 16 bits
Compression mode : Lossy
Stream size : 168 MiB (1%)
Title : MVO [ICTV] | stereo
Language : Ukrainian
Service kind : Complete Main
Default : Yes
Forced : Yes

Audio #2
ID : 3
Format : AC-3
Format/Info : Audio Coding 3
Format settings, Endianness : Big
Codec ID : A_AC3
Duration : 2 h 2 min
Bit rate mode : Constant
Bit rate : 192 kb/s
Channel(s) : 2 channels
Channel positions : Front: L R
Sampling rate : 48.0 kHz
Frame rate : 31.250 FPS (1536 SPF)
Bit depth : 16 bits
Compression mode : Lossy
Stream size : 168 MiB (1%)
Title : DUB | Mic
Language : Ukrainian
Service kind : Complete Main
Default : No
Forced : No

Audio #3
ID : 4
Format :
Format/Info : Digital Theater Systems
Format profile : MA / Core
Mode : 16
Format settings, Endianness : Big
Codec ID : A_DTS
Duration : 2 h 2 min
Bit rate mode : Variable / Constant
Bit rate : 4 214 kb/s / 1 509 kb/s
Channel(s) : 8 channels / 6 channels
Channel positions : Front: L C R, Side: L R, Back: L R, LFE / Front: L C R, Side: L R, LFE
Sampling rate : 48.0 kHz
Frame rate : 93.750 FPS (512 SPF)
Bit depth : 24 bits
Compression mode : Lossless / Lossy
Stream size : 3.60 GiB (12%)
Title : Original -HD MA 7.1
Language : English
Default : No
Forced : No

Audio #4
ID : 5
Format : AC-3
Format/Info : Audio Coding 3
Format settings, Endianness : Big
Codec ID : A_AC3
Duration : 2 h 2 min
Bit rate mode : Constant
Bit rate : 640 kb/s
Channel(s) : 6 channels
Channel positions : Front: L C R, Side: L R, LFE
Sampling rate : 48.0 kHz
Frame rate : 31.250 FPS (1536 SPF)
Bit depth : 16 bits
Compression mode : Lossy
Stream size : 560 MiB (2%)
Title : Original AC-3
Language : English
Service kind : Complete Main
Default : No
Forced : No

Audio #5
ID : 6
Format : AC-3
Format/Info : Audio Coding 3
Mode : Dolby Digital
Format settings, Endianness : Big
Codec ID : A_AC3
Duration : 2 h 2 min
Bit rate mode : Constant
Bit rate : 224 kb/s
Channel(s) : 2 channels
Channel positions : Front: L R
Sampling rate : 48.0 kHz
Frame rate : 31.250 FPS (1536 SPF)
Bit depth : 16 bits
Compression mode : Lossy
Stream size : 196 MiB (1%)
Title : Commentary by director Chad Stahelski and actor Keanu Reeves
Language : English
Service kind : Complete Main
Default : No
Forced : No

Text
ID : 7
Format : UTF-8
Codec ID : S_TEXT/UTF8
Codec ID/Info : UTF-8 Plain Text
Duration : 1 h 49 min
Bit rate : 21 b/s
Count of elements : 658
Stream size : 17.2 KiB (0%)
Title : Eng
Language : English
Default : No
Forced : No

Menu
00:00:00.000 : en:Chapter 1
00:06:31.683 : en:Chapter 2
00:16:57.934 : en:Chapter 3
00:26:35.594 : en:Chapter 4
00:34:38.034 : en:Chapter 5
00:42:07.817 : en:Chapter 6
00:48:07.051 : en:Chapter 7
00:56:41.648 : en:Chapter 8
01:01:42.782 : en:Chapter 9
01:10:27.682 : en:Chapter 10
01:17:15.923 : en:Chapter 11
01:24:22.641 : en:Chapter 12
01:32:11.234 : en:Chapter 13
01:40:01.329 : en:Chapter 14
01:46:34.763 : en:Chapter 15
01:54:01.042 : en:Chapter 16
Скріншоти
Джерело: &
Над доріжками працювали: Bohdan237, Петров Микола, Sando7, Koful, Electroz
Також подяка п. 11FrYkT за попередній реліз.
Особиста оцінка: 10 - без зайвих вагань рекомендую всім!


Золотий реліз (завантажене не впливає на рейтинг)
 Трекер:    Зареєстрований   

Завантажити / скачати фільм українською



відео для новачків



 Зареєстрований:   2019-03-19 03:08
 Розмір:   29.87 GB 
 Оцінка фільму:   9.5/10 (Голосів: 21)
   
bogdanich 
VIP


З нами з: 24.10.13
Востаннє: 11.12.19
Повідомлень: 581

2019-03-26 01:22  
Непереконлива зав'язка, безглуздий сюжет та й екшн вже не той, що у першому фільмі. Помахались, пострілялись та й на тому все. Єдине, що сподобалося, екшнсцени з автомобілями на самому початку.
2/10.
Дякую!

0978984777 
Новенький


З нами з: 09.06.18
Востаннє: 14.12.19
Повідомлень: 5

2019-03-29 08:42  
чому не 5 + 1 ?
[email protected] 
VIP


З нами з: 24.03.17
Востаннє: 14.12.19
Повідомлень: 399

2019-04-01 20:21  
Мені перший фільм більш сподобався
Panther2214 
Попереджень: 1
Попереджень: 1 


З нами з: 29.09.17
Востаннє: 20.11.19
Повідомлень: 373

2019-07-06 20:28  
Дивний у цього релізера нік чи псевдонім, майже влучно написані матюки не польський і не чеський, хто відгадає???😊😁😁
Ваш часовий пояс: GMT + 2 Години

Нова тема   Відповісти