Аквамен / Aquaman [IMAX Edition] (2018) Remux 1080p Ukr/Eng | Sub Eng

Нові коментарі

Нова тема   Відповісти
Автор Повідомлення
Anonymous 







2019-03-19 01:31  
Аквамен / Aquaman [IMAX Edition] (2018) Remux 1080p Ukr/Eng | Sub Eng

Аквамен / Aquaman [IMAX Edition] (2018) Remux 1080p Ukr/Eng | Sub Eng


Жанр: пригодницький, фантастика, екшн
Країна: США, Австралія





Кінокомпанія: Warner Bros., DC Entertainment, DC Comics
Режисер: Джеймс Ван
Актори: Джейсон Момоа, Ембер Герд, Віллем Дефо, Патрік Вілсон, Дольф Лундґрен, Ях'я Абдул-Матін II, Ніколь Кідман, Ґрем Мактавіш, Джимон Гунсу, Рендолл Парк, Джулі Ендрюс, Лі Воннелл

Сюжет:
Кожен із нас може хоч на трішки змінити світ, якщо того захоче. Але серед нас є навіть ті, яким на долі написано вплинути на майбутнє всього людства. Артур Каррі має вельми незвичайну пару батьків: його тато був працівником маяка, а мати – королевою Атлантиди на ім'я Атланна, яку вигнали з царства. Хлопчик виріс, не знаючи про свої сили. Він умів довго затримувати дихання під водою та розмовляв з рибами, але не підозрював, що може зайняти трон Атлантиди. Зараз його тримає зведений брат Артура на ім'я Орм. На жаль, цей хлопець не має добрих намірів до надводного світу та збирається його знищити. Артур, як дитя двох світів, повинен об'єднати їх і не дати Орму зруйнувати цей крихкий мир.


Тривалість: 02:23:21
Якість: Remux 1080p [IMAX Edition]
Відео:
кодек:
розмір кадру: 1920x1080
бітрейт: 22.3 Мб/с

Аудіо # 1:
мова: українська
переклад: професійний дубльований
кодек: 5.1
бітрейт: 384 кб/с

Аудіо # 3:
мова: англійська
переклад: оригінал
кодек: 5.1
бітрейт: 448 кб/с

Аудіо # 2:
мова: англійська
переклад: оригінал
кодек: TrueHD 7.1
бітрейт: 3579 кб/с

Джерело озвучення:


Субтитри (Forced):
мова: українська
тип: програмні (м'які)
формат: *.srt

Субтитри:
мова: англійська
тип: програмні (м'які)
формат: *.srt
Info
Код:
General
Complete name                            : Aquaman [IMAX Edition] (2018) Remux [ukr_eng] [ViDeO_Hurtom].
Format                                   :
Format version                           : Version 4
File size                                : 26.8 GiB
Duration                                 : 2 h 23 min
Overall bit rate mode                    : Variable
Overall bit rate                         : 26.7 Mb/s
Movie name                               : Aquaman [IMAX Edition] (2018) Remux [ukr_eng] [ViDeO_Hurtom]
Encoded date                             : UTC 2019-07-09 06:52:40
Writing application                      : v30.1.0 ('Forever And More') 64-bit
Writing library                          : libebml v1.3.6 + v1.4.9

Video
ID                                       : 1
Format                                   : AVC
Format/Info                              : Advanced Video Codec
Format profile                           : [email protected]
Format settings                          : CABAC / 2 Ref Frames
Format settings, CABAC                   : Yes
Format settings, RefFrames               : 2 frames
Codec ID                                 : V_MPEG4/ISO/AVC
Duration                                 : 2 h 23 min
Bit rate mode                            : Variable
Bit rate                                 : 22.3 Mb/s
Width                                    : 1 920 pixels
Height                                   : 1 080 pixels
Display aspect ratio                     : 16:9
Frame rate mode                          : Constant
Frame rate                               : 23.976 (24000/1001) FPS
Color space                              : YUV
Chroma subsampling                       : 4:2:0
Bit depth                                : 8 bits
Scan type                                : Progressive
Bits/(Pixel*Frame)                       : 0.448
Stream size                              : 22.3 GiB (83%)
Language                                 : English
Default                                  : Yes
Forced                                   : No

Audio #1
ID                                       : 2
Format                                   : AC-3
Format/Info                              : Audio Coding 3
Commercial name                          : Dolby Digital
Codec ID                                 : A_AC3
Duration                                 : 2 h 23 min
Bit rate mode                            : Constant
Bit rate                                 : 384 kb/s
Channel(s)                               : 6 channels
Channel layout                           : L R C LFE Ls Rs
Sampling rate                            : 48.0 kHz
Frame rate                               : 31.250 FPS (1536 SPF)
Bit depth                                : 16 bits
Compression mode                         : Lossy
Stream size                              : 394 MiB (1%)
Title                                    : , 6 ch, 384 Кбт/с
Language                                 : Ukrainian
Service kind                             : Complete Main
Default                                  : Yes
Forced                                   : No

Audio #2
ID                                       : 3
Format                                   : AC-3
Format/Info                              : Audio Coding 3
Commercial name                          : Dolby Digital
Codec ID                                 : A_AC3
Duration                                 : 2 h 23 min
Bit rate mode                            : Constant
Bit rate                                 : 448 kb/s
Channel(s)                               : 6 channels
Channel layout                           : L R C LFE Ls Rs
Sampling rate                            : 48.0 kHz
Frame rate                               : 31.250 FPS (1536 SPF)
Bit depth                                : 16 bits
Compression mode                         : Lossy
Stream size                              : 459 MiB (2%)
Title                                    : , 6 ch, 448 Кбт/с
Language                                 : English
Service kind                             : Complete Main
Default                                  : No
Forced                                   : No

Audio #3
ID                                       : 4
Format                                   : MLP FBA 16-ch
Format/Info                              : Meridian Lossless Packing FBA with 16-channel presentation
Commercial name                          : Dolby TrueHD with Dolby Atmos
Codec ID                                 : A_TRUEHD
Duration                                 : 2 h 23 min
Bit rate mode                            : Variable
Bit rate                                 : 3 579 kb/s
Maximum bit rate                         : 6 144 kb/s
Channel(s)                               : 8 channels
Channel layout                           : L R C LFE Ls Rs Lb Rb
Sampling rate                            : 48.0 kHz
Frame rate                               : 1 200.000 FPS (40 SPF)
Compression mode                         : Lossless
Stream size                              : 3.58 GiB (13%)
Title                                    : TrueHD, 8 ch, 3579 Кбт/с
Language                                 : English
Default                                  : No
Forced                                   : No
Number of dynamic objects                : 15
Bed channel count                        : 1 channel
Bed channel configuration                : LFE

Text #1
ID                                       : 5
Format                                   : UTF-8
Codec ID                                 : S_TEXT/UTF8
Codec ID/Info                            : UTF-8 Plain Text
Duration                                 : 2 h 22 min
Bit rate                                 : 1 b/s
Count of elements                        : 32
Stream size                              : 1.54 KiB (0%)
Title                                    : Forced
Language                                 : Ukrainian
Default                                  : Yes
Forced                                   : No

Text #2
ID                                       : 6
Format                                   : UTF-8
Codec ID                                 : S_TEXT/UTF8
Codec ID/Info                            : UTF-8 Plain Text
Duration                                 : 2 h 14 min
Bit rate                                 : 38 b/s
Count of elements                        : 1132
Stream size                              : 37.5 KiB (0%)
Title                                    : Full
Language                                 : English
Default                                  : No
Forced                                   : No
Скріншоти




Джерело: &
Особиста оцінка: 9 - давно не бачив настільки якісне кіно


Золотий реліз (завантажене не впливає на рейтинг)
 Трекер:    Зареєстрований   

Завантажити / скачати фільм українською



відео для новачків



 Зареєстрований:   2019-07-09 10:03
 Розмір:   26.78 GB 
 Оцінка фільму:   9.5/10 (Голосів: 19)
   
Інші релізи
   Аквамен / Aquaman [IMAX Edition] (2018) UHD Remux 4K 2160p HDR H.265 Ukr/Eng | Sub Eng antik_2008  5 / 0   57.25 GB   2019-07-09 18:19 
   Аквамен / Aquaman (2018) Remux 1080p Ukr/Eng | Sub Eng antik_2008  2 / 0   22.72 GB   2019-07-09 16:34 
   Аквамен / Aquaman [IMAX Edition] (2018) Ukr/Eng antik_2008  4 / 1   2.98 GB   2019-07-09 16:31 
   Аквамен / Aquaman [IMAX Edition] (2018) 1080p Ukr/Eng | Sub Eng antik_2008  2 / 0   19.31 GB   2019-07-09 10:10 
   Аквамен / Aquaman (2018) 1080p Ukr/Eng | Sub Eng antik_2008  7 / 0   8.34 GB   2019-07-09 10:05 
   Аквамен / Aquaman (2018) AVC (IMAX Edition) Ukr/Eng | Sub Eng 11FrYkT  10 / 0   3.07 GB   2019-07-08 07:51 
   Аквамен / Aquaman (2018) 720p (IMAX Edition) Ukr/Eng | Sub Eng 11FrYkT  7 / 0   8.07 GB   2019-07-08 07:45 
   Аквамен / Aquaman (2018) (IMAX Edition) uafilm.tv  15 / 0   1.5 GB   2019-03-24 14:03 
   Аквамен / Aquaman [IMAX Edition] (2018) 1080p H.265 Ukr/Eng | Sub Eng -Star-Lord-  6 / 0   10.77 GB   2019-03-17 13:40 
   Аквамен / Aquaman [Open Matte] (2018) 1080p Ukr/Eng | Sub Eng antik_2008  5 / 0   5.61 GB   2019-03-11 23:41 
   Аквамен / Aquaman (2018) UHD 4K 2160p HDR H.265 Ukr/Eng | Sub Eng antik_2008  8 / 0   14.4 GB   2019-03-07 11:37 
   Аквамен / Aquaman (2018) AVC Ukr| Sub Kor Kinomania.studio  1 / 0   1.86 GB   2019-02-14 20:27 
F.R.F.D! 
Частий відвідувач


З нами з: 13.03.12
Востаннє: 08.11.19
Повідомлень: 29

2019-04-27 21:56  
Тут саби тіки на написи ? Я думав глянути орігінал + укр. саби , але щось не бачу сабів :с

У налаштуваннях врубив та вибрав саби

igor911 
Модератор відео


З нами з: 18.01.08
Востаннє: 13.11.19
Повідомлень: 13632

2019-04-27 22:05  
F.R.F.D! написано:
Тут саби тіки на написи ?

так

F.R.F.D! 
Частий відвідувач


З нами з: 13.03.12
Востаннє: 08.11.19
Повідомлень: 29

2019-04-27 23:01  
Цитата:
так

поняв..

Nahalist 
Поважний учасник


З нами з: 12.12.13
Востаннє: 13.11.19
Повідомлень: 203

2019-05-29 12:09  
класс, 16:9 це бомба!!!
igor911 
Модератор відео


З нами з: 18.01.08
Востаннє: 13.11.19
Повідомлень: 13632

2019-05-29 15:05  
Nahalist написано:
16:9


Anonymous 







2019-07-09 10:03  
09.07.2019 Роздачу оновлено


Замінив доріжку на 5.1 @ 384 kbps



Anonymous 







2019-07-20 15:53  
9 \ 10
fatum69 
Частий відвідувач


З нами з: 10.12.16
Востаннє: 12.11.19
Повідомлень: 37

2019-07-26 13:03  
Сподобався, правда трохи затягнутий
Ваш часовий пояс: GMT + 2 Години

Нова тема   Відповісти