Аквамен / Aquaman (2018) 1080p Ukr/Eng | Sub Eng

Нові коментарі

Нова тема   Відповісти
Автор Повідомлення
Anonymous 







2019-03-19 00:29  
Аквамен / Aquaman (2018) 1080p Ukr/Eng | Sub Eng

Аквамен / Aquaman (2018) 1080p Ukr/Eng | Sub Eng


Жанр: пригодницький, фантастика, екшн
Країна: США, Австралія





Кінокомпанія: Warner Bros., DC Entertainment, DC Comics
Режисер: Джеймс Ван
Актори: Джейсон Момоа, Ембер Герд, Віллем Дефо, Патрік Вілсон, Дольф Лундґрен, Ях'я Абдул-Матін II, Ніколь Кідман, Ґрем Мактавіш, Джимон Гунсу, Рендолл Парк, Джулі Ендрюс, Лі Воннелл

Сюжет:
Кожен із нас може хоч на трішки змінити світ, якщо того захоче. Але серед нас є навіть ті, яким на долі написано вплинути на майбутнє всього людства. Артур Каррі має вельми незвичайну пару батьків: його тато був працівником маяка, а мати – королевою Атлантиди на ім'я Атланна, яку вигнали з царства. Хлопчик виріс, не знаючи про свої сили. Він умів довго затримувати дихання під водою та розмовляв з рибами, але не підозрював, що може зайняти трон Атлантиди. Зараз його тримає зведений брат Артура на ім'я Орм. На жаль, цей хлопець не має добрих намірів до надводного світу та збирається його знищити. Артур, як дитя двох світів, повинен об'єднати їх і не дати Орму зруйнувати цей крихкий мир.


Тривалість: 02:23:21
Якість: 1080p
Відео:
кодек:
розмір кадру: 1920x800
бітрейт: 7500 кб/с

Аудіо # 1:
мова: українська
переклад: професійний дубльований
кодек: 5.1
бітрейт: 384 кб/с

Аудіо # 2:
мова: англійська
переклад: оригінал
кодек: 5.1
бітрейт: 448 кб/с

Джерело озвучення:


Субтитри (Forced):
мова: українська
тип: програмні (м'які)
формат: *.srt

Субтитри:
мова: англійська
тип: програмні (м'які)
формат: *.srt
Info
Код:
General
Complete name                            : Aquaman (2018) 1080p [UKR_ENG] [ViDeO_Hurtom].
Format                                   :
Format version                           : Version 4
File size                                : 8.34 GiB
Duration                                 : 2 h 23 min
Overall bit rate                         : 8 330 kb/s
Movie name                               : Aquaman (2018) [UKR_ENG] 1080p [ViDeO_Hurtom]
Encoded date                             : UTC 2019-07-09 07:07:08
Writing application                      : v30.1.0 ('Forever And More') 64-bit
Writing library                          : libebml v1.3.6 + v1.4.9

Video
ID                                       : 1
Format                                   : AVC
Format/Info                              : Advanced Video Codec
Format profile                           : [email protected]
Format settings                          : CABAC / 5 Ref Frames
Format settings, CABAC                   : Yes
Format settings, RefFrames               : 5 frames
Codec ID                                 : V_MPEG4/ISO/AVC
Duration                                 : 2 h 23 min
Bit rate                                 : 7 500 kb/s
Width                                    : 1 920 pixels
Height                                   : 800 pixels
Display aspect ratio                     : 2.40:1
Frame rate mode                          : Constant
Frame rate                               : 23.976 (24000/1001) FPS
Color space                              : YUV
Chroma subsampling                       : 4:2:0
Bit depth                                : 8 bits
Scan type                                : Progressive
Bits/(Pixel*Frame)                       : 0.204
Stream size                              : 7.51 GiB (90%)
Title                                    : seleZen
Writing library                          : core 148 r2705kMod 3f5ed56
Encoding settings                        : cabac=1 / ref=5 / deblock=1:-2:-2 / analyse=0x3:0x133 / me=umh / subme=10 / psy=1 / fade_compensate=0.00 / psy_rd=1.20:0.05 / mixed_ref=1 / me_range=24 / chroma_me=1 / trellis=2 / 8x8dct=1 / cqm=0 / deadzone=21,11 / fast_pskip=0 / chroma_qp_offset=-3 / threads=12 / lookahead_threads=2 / sliced_threads=0 / nr=0 / decimate=0 / interlaced=0 / bluray_compat=0 / constrained_intra=0 / fgo=0 / bframes=8 / b_pyramid=2 / b_adapt=2 / b_bias=0 / direct=3 / weightb=1 / open_gop=0 / weightp=2 / keyint=240 / keyint_min=23 / scenecut=40 / intra_refresh=0 / rc_lookahead=50 / rc=2pass / mbtree=0 / bitrate=7500 / ratetol=1.0 / qcomp=0.60 / qpmin=0 / qpmax=51 / qpstep=4 / cplxblur=20.0 / qblur=0.5 / vbv_maxrate=50000 / vbv_bufsize=62500 / nal_hrd=none / filler=0 / ip_ratio=1.40 / pb_ratio=1.30 / aq=3:0.80
Language                                 : English
Default                                  : Yes
Forced                                   : No

Audio #1
ID                                       : 2
Format                                   : AC-3
Format/Info                              : Audio Coding 3
Commercial name                          : Dolby Digital
Codec ID                                 : A_AC3
Duration                                 : 2 h 23 min
Bit rate mode                            : Constant
Bit rate                                 : 384 kb/s
Channel(s)                               : 6 channels
Channel layout                           : L R C LFE Ls Rs
Sampling rate                            : 48.0 kHz
Frame rate                               : 31.250 FPS (1536 SPF)
Bit depth                                : 16 bits
Compression mode                         : Lossy
Stream size                              : 394 MiB (5%)
Title                                    : , 6 ch, 384 Кбт/с
Language                                 : Ukrainian
Service kind                             : Complete Main
Default                                  : Yes
Forced                                   : No

Audio #2
ID                                       : 3
Format                                   : AC-3
Format/Info                              : Audio Coding 3
Commercial name                          : Dolby Digital
Codec ID                                 : A_AC3
Duration                                 : 2 h 23 min
Bit rate mode                            : Constant
Bit rate                                 : 448 kb/s
Channel(s)                               : 6 channels
Channel layout                           : L R C LFE Ls Rs
Sampling rate                            : 48.0 kHz
Frame rate                               : 31.250 FPS (1536 SPF)
Bit depth                                : 16 bits
Compression mode                         : Lossy
Stream size                              : 459 MiB (5%)
Title                                    : , 6 ch, 448 Кбт/с
Language                                 : English
Service kind                             : Complete Main
Default                                  : No
Forced                                   : No

Text #1
ID                                       : 4
Format                                   : UTF-8
Codec ID                                 : S_TEXT/UTF8
Codec ID/Info                            : UTF-8 Plain Text
Duration                                 : 2 h 22 min
Bit rate                                 : 1 b/s
Count of elements                        : 32
Stream size                              : 1.54 KiB (0%)
Title                                    : Forced
Language                                 : Ukrainian
Default                                  : Yes
Forced                                   : No

Text #2
ID                                       : 5
Format                                   : UTF-8
Codec ID                                 : S_TEXT/UTF8
Codec ID/Info                            : UTF-8 Plain Text
Duration                                 : 2 h 14 min
Bit rate                                 : 38 b/s
Count of elements                        : 1132
Stream size                              : 37.5 KiB (0%)
Title                                    : Full
Language                                 : English
Default                                  : No
Forced                                   : No
Скріншоти




Джерело: &
Особиста оцінка: 9 - давно не бачив настільки якісне кіно


 Трекер:    Зареєстрований   

Завантажити / скачати фільм українською



відео для новачків



 Зареєстрований:   2019-07-09 10:05
 Розмір:   8.34 GB 
 Оцінка фільму:   9.6/10 (Голосів: 37)
   
Інші релізи
   Аквамен / Aquaman [IMAX Edition] (2018) UHD Remux 4K 2160p HDR H.265 Ukr/Eng | Sub Eng antik_2008  4 / 1   57.25 GB   2019-07-09 18:19 
   Аквамен / Aquaman (2018) Remux 1080p Ukr/Eng | Sub Eng antik_2008  2 / 0   22.72 GB   2019-07-09 16:34 
   Аквамен / Aquaman [IMAX Edition] (2018) Ukr/Eng antik_2008  8 / 0   2.98 GB   2019-07-09 16:31 
   Аквамен / Aquaman [IMAX Edition] (2018) 1080p Ukr/Eng | Sub Eng antik_2008  1 / 0   19.31 GB   2019-07-09 10:10 
   Аквамен / Aquaman [IMAX Edition] (2018) Remux 1080p Ukr/Eng | Sub Eng antik_2008  1 / 0   26.78 GB   2019-07-09 10:03 
   Аквамен / Aquaman (2018) AVC (IMAX Edition) Ukr/Eng | Sub Eng 11FrYkT  11 / 0   3.07 GB   2019-07-08 07:51 
   Аквамен / Aquaman (2018) 720p (IMAX Edition) Ukr/Eng | Sub Eng 11FrYkT  9 / 0   8.07 GB   2019-07-08 07:45 
   Аквамен / Aquaman (2018) (IMAX Edition) uafilm.tv  16 / 1   1.5 GB   2019-03-24 14:03 
   Аквамен / Aquaman [IMAX Edition] (2018) 1080p H.265 Ukr/Eng | Sub Eng -Star-Lord-  8 / 0   10.77 GB   2019-03-17 13:40 
   Аквамен / Aquaman [Open Matte] (2018) 1080p Ukr/Eng | Sub Eng antik_2008  3 / 0   5.61 GB   2019-03-11 23:41 
   Аквамен / Aquaman (2018) UHD 4K 2160p HDR H.265 Ukr/Eng | Sub Eng antik_2008  7 / 0   14.4 GB   2019-03-07 11:37 
   Аквамен / Aquaman (2018) AVC Ukr| Sub Kor Kinomania.studio  7 / 0   1.86 GB   2019-02-14 20:27 
zaratustra2017 
Новенький


З нами з: 08.02.17
Востаннє: 12.12.19
Повідомлень: 2

2019-03-19 19:06  
Коли чекати на 3D?
Anonymous 







2019-03-19 23:22  
zaratustra2017 написано:
Коли чекати на 3D?

я не робитиму

enter11 
Частий відвідувач


З нами з: 19.06.12
Востаннє: 28.11.19
Повідомлень: 28

2019-05-01 13:32  
Аквамен рятує російських підводників і каже що це не винні люди. Путін продюсер ?
Anonymous 







2019-05-02 15:17  
enter11 написано:
Аквамен рятує російських підводників і каже що це не винні люди. Путін продюсер ?

До чого - це тут

enter11 написано:
продюсер ?


Пітер Сефрен

krupin 
Новенький


З нами з: 30.11.16
Востаннє: 25.11.19
Повідомлень: 7

2019-05-11 13:19  
antik_2008 написано:

enter11 написано:
продюсер ?

Пітер Сефрен


мда... почуття гумору на висоті (facepalm)

Anonymous 







2019-07-09 10:06  
09.07.2019 Роздачу оновлено


Замінив доріжку на 5.1 @ 384 kbps



Ваш часовий пояс: GMT + 2 Години

Нова тема   Відповісти