Фаворитка / The Favourite (2018) Remux 1080p Ukr/Eng | Sub Ukr/Eng

Нові коментарі

Нова тема   Відповісти
Автор Повідомлення
Anonymous 







2019-03-17 22:47  
Фаворитка / The Favourite (2018) Remux 1080p Ukr/Eng | Sub Ukr/Eng

Фаворитка / The Favourite (2018) Remux 1080p Ukr/Eng | Sub Ukr/Eng


Жанр: біографічний, драма, історичний, комедія
Країна: США, Велика Британія, Ірландія





Кінокомпанія: Film4, 20th Century Fox, Element Pictures
Режисер: Йорґос Лантімос
Актори: Олівія Колман, Рейчел Вайс, Емма Стоун, Джо Елвін, Ніколас Холт

Сюжет:
XVIII століття для Англії та Франції почалося з війни. У той час на троні Королівства сиділа Анна – хвороблива королева, яка абсолютно не була готова до державної діяльності. Кермо влади тоді підхопила її близька подруга Сара Черчілль, яка завдяки своїм зв'язкам і впливу домагалася багато чого. Саме вона керувала армією під час війни, займалася державними справами, поки Анна цього робити не могла. Але з часом у Королеви з'явилася нова фаворитка – звичайна служниця Ебігейл. Дівчина просто подобається Анні, тому готова багато в чому їй допомагати, що не подобається Сарі. Із кожним днем Ебігейл все більше та більше вникає в державні справи, стаючи радницею Королеви. Це відмінна можливість для простої дівчини з аристократичним корінням реалізувати свої амбіції.


Тривалість: 01:59:29
Якість: Remux 1080p

Відео:
кодек:
розмір кадру: 1920x1080
бітрейт: 30,3 Мб/с

Аудіо # 1:
мова: українська
переклад: професійний дубльований | студія Postmodern
кодек: 5.1
бітрейт: 448 кб/с
Інформація про дубляж:

Аудіо # 2:
мова: англійська
переклад: оригінал
кодек: 5.1
бітрейт: 448 кб/с

Аудіо # 3:
мова: англійська
переклад: оригінал
кодек: -HD MA 5.1
бітрейт: 3352 кб/с

Субтитри (Forced, Full) :
мова: українська
тип: програмні (м'які)
формат: *.srt

Субтитри (Full, SDH) :
мова: англійська
тип: програмні (м'які)
формат: *.srt
Info
Код:
General
Complete name                            : The Favourite (2018) [UKR_ENG] Remux [ViDeO_Hurtom].
Format                                   :
Format version                           : Version 4
File size                                : 28.9 GiB
Duration                                 : 1 h 59 min
Overall bit rate mode                    : Variable
Overall bit rate                         : 34.6 Mb/s
Movie name                               : The Favourite (2018) [UKR_ENG] Remux [ViDeO_Hurtom]
Encoded date                             : UTC 2019-05-07 12:42:45
Writing application                      : v30.1.0 ('Forever And More') 64-bit
Writing library                          : libebml v1.3.6 + v1.4.9

Video
ID                                       : 1
Format                                   : AVC
Format/Info                              : Advanced Video Codec
Format profile                           : [email protected]
Format settings                          : CABAC / 2 Ref Frames
Format settings, CABAC                   : Yes
Format settings, RefFrames               : 2 frames
Codec ID                                 : V_MPEG4/ISO/AVC
Duration                                 : 1 h 59 min
Bit rate mode                            : Variable
Bit rate                                 : 30.3 Mb/s
Width                                    : 1 920 pixels
Height                                   : 1 080 pixels
Display aspect ratio                     : 16:9
Frame rate mode                          : Constant
Frame rate                               : 23.976 (24000/1001) FPS
Color space                              : YUV
Chroma subsampling                       : 4:2:0
Bit depth                                : 8 bits
Scan type                                : Progressive
Bits/(Pixel*Frame)                       : 0.610
Stream size                              : 25.3 GiB (88%)
Language                                 : English
Default                                  : No
Forced                                   : No

Audio #1
ID                                       : 2
Format                                   : AC-3
Format/Info                              : Audio Coding 3
Commercial name                          : Dolby Digital
Codec ID                                 : A_AC3
Duration                                 : 1 h 59 min
Bit rate mode                            : Constant
Bit rate                                 : 448 kb/s
Channel(s)                               : 6 channels
Channel layout                           : L R C LFE Ls Rs
Sampling rate                            : 48.0 kHz
Frame rate                               : 31.250 FPS (1536 SPF)
Bit depth                                : 16 bits
Compression mode                         : Lossy
Stream size                              : 383 MiB (1%)
Title                                    : , 6 ch, 448 Кбт/с
Language                                 : Ukrainian
Service kind                             : Complete Main
Default                                  : Yes
Forced                                   : No

Audio #2
ID                                       : 3
Format                                   : AC-3
Format/Info                              : Audio Coding 3
Commercial name                          : Dolby Digital
Codec ID                                 : A_AC3
Duration                                 : 1 h 59 min
Bit rate mode                            : Constant
Bit rate                                 : 448 kb/s
Channel(s)                               : 6 channels
Channel layout                           : L R C LFE Ls Rs
Sampling rate                            : 48.0 kHz
Frame rate                               : 31.250 FPS (1536 SPF)
Bit depth                                : 16 bits
Compression mode                         : Lossy
Stream size                              : 383 MiB (1%)
Title                                    : , 6 ch, 448 Кбт/с
Language                                 : English
Service kind                             : Complete Main
Default                                  : No
Forced                                   : No

Audio #3
ID                                       : 4
Format                                   : XLL
Format/Info                              : Digital Theater Systems
Commercial name                          : -HD Master Audio
Codec ID                                 : A_DTS
Duration                                 : 1 h 59 min
Bit rate mode                            : Variable
Bit rate                                 : 3 352 kb/s
Channel(s)                               : 6 channels
Channel layout                           : C L R Ls Rs LFE
Sampling rate                            : 48.0 kHz
Frame rate                               : 93.750 FPS (512 SPF)
Bit depth                                : 24 bits
Compression mode                         : Lossless
Stream size                              : 2.80 GiB (10%)
Title                                    : -HD MA, 6 ch, 3352 Кбт/с
Language                                 : English
Default                                  : No
Forced                                   : No

Text #1
ID                                       : 5
Format                                   : UTF-8
Codec ID                                 : S_TEXT/UTF8
Codec ID/Info                            : UTF-8 Plain Text
Duration                                 : 1 h 57 min
Bit rate                                 : 0 b/s
Count of elements                        : 11
Stream size                              : 466 Bytes (0%)
Title                                    : Forced
Language                                 : Ukrainian
Default                                  : Yes
Forced                                   : No

Text #2
ID                                       : 6
Format                                   : UTF-8
Codec ID                                 : S_TEXT/UTF8
Codec ID/Info                            : UTF-8 Plain Text
Duration                                 : 1 h 57 min
Bit rate                                 : 89 b/s
Count of elements                        : 1319
Stream size                              : 76.9 KiB (0%)
Title                                    : Full
Language                                 : Ukrainian
Default                                  : No
Forced                                   : No

Text #3
ID                                       : 7
Format                                   : UTF-8
Codec ID                                 : S_TEXT/UTF8
Codec ID/Info                            : UTF-8 Plain Text
Duration                                 : 1 h 55 min
Bit rate                                 : 52 b/s
Count of elements                        : 1395
Stream size                              : 43.9 KiB (0%)
Title                                    : Full
Language                                 : English
Default                                  : No
Forced                                   : No

Text #4
ID                                       : 8
Format                                   : UTF-8
Codec ID                                 : S_TEXT/UTF8
Codec ID/Info                            : UTF-8 Plain Text
Duration                                 : 1 h 57 min
Bit rate                                 : 56 b/s
Count of elements                        : 1584
Stream size                              : 48.7 KiB (0%)
Title                                    : SDH
Language                                 : English
Default                                  : No
Forced                                   : No
Скріншоти





Джерело:
Особиста оцінка: 8 - мені сподобалося


Золотий реліз (завантажене не впливає на рейтинг)
 Трекер:    Зареєстрований   

Завантажити / скачати фільм українською



відео для новачків



 Зареєстрований:   2019-05-07 15:07
 Розмір:   28.86 GB 
 Оцінка фільму:   8.6/10 (Голосів: 16)
   
Інші релізи
   Фаворитка / The Favourite (2018) 1080p H.265 Ukr/Eng | Sub Ukr/Eng -Star-Lord-  4 / 0   6.92 GB   2019-05-19 13:50 
   Фаворитка / The Favourite (2018) 1080p Ukr/Eng | Sub Ukr/Eng staf777  2 / 0   9.98 GB   2019-05-17 06:04 
   Фаворитка / The Favourite (2018) Ukr/Eng antik_2008  10 / 0   2.28 GB   2019-05-07 14:39 
   Фаворитка / The Favourite (2018) 720p Ukr/Eng | Sub Ukr/Eng 11FrYkT  9 / 0   5.54 GB   2019-05-06 17:27 
   Фаворитка / The Favourite (2018) AVC Ukr/Eng | Sub Ukr/Eng 11FrYkT  15 / 0   2.39 GB   2019-05-06 14:33 
Anonymous 







2019-05-07 15:07  
Реліз оновлено. Додав АС3 5.1 @ 448 kbps

Ваш часовий пояс: GMT + 2 Години

Нова тема   Відповісти