Мене звуть Ніхто / My Name is Nobody / Il mio nome è Nessuno (1973) Remux 1080p Ukr/Eng | Sub Eng

Нові коментарі

Нова тема   Відповісти
Автор Повідомлення
MakRA 
VIP


З нами з: 10.11.18
Востаннє: 08.12.19
Повідомлень: 587

2019-03-17 21:15  
Мене звуть Ніхто / My Name is Nobody / Il mio nome è Nessuno (1973) Remux 1080p Ukr/Eng | Sub Eng

Мене звуть Ніхто / My Name is Nobody / Il mio nome è Nessuno (1973) Remux 1080p Ukr/Eng | Sub Eng

Український постер:


Альтернативні обкладинки:





Жанр: вестерн, комедія, пригодницький
Країна: Італія, Франція, Німеччина (ФРН)



Кінокомпанія: Rafran Cinematografica, Les Films Jacques Leitienne, Imp.Ex.Ci.
Режисер: Тоніно Валеріі [Tonino Valerii]
Актори: Теренс Гілл [Terence Hill], Генрі Фонда [Henry Fonda], Жан Мартен [Jean Martin], Р.Г. Армстронг [R.G. Armstrong], Карл Браун [Karl Braun], Лео Гордон [Leo Gordon], Стів Кена [Steve Kanaly], Джеффрі Льюїс [Geoffrey Lewis], Ніл Саммерс [Neil Summers], П'єро Луллі [Piero Lulli].

Сюжет:
Молодий, і не в міру енергійний ковбой (Теренс Гілл), намагається умовити старого, втомленого ковбоя (Генрі Фонда) піти на останню справу - (!) Розібратися з бандою «Дика Купа», у складі якої «всього-на-всього» 150 чоловік.


Тривалість: 01:55:50
Якість: Remux 1080p
Відео:
кодек:
розмір кадру: 1920 х 1080
бітрейт: 33.0 Мб/с
примітка: французське видання

Аудіо # 1:
мова: українська
переклад: двоголосий закадровий [2+2]
кодек: 2.0
бітрейт: 192 кб/с
примітка від robotron005: По телеканалу "Гамма" транслювали з ідентичною озвучкою
Про озвучення:

Ролі озвучили:Олександр Завальський і Ніна Касторф.
Аудіо # 2:
мова: англійська
переклад: оригінал
кодек: 2.0
бітрейт: 192 кб/с

Аудіо # 3:
мова: англійська
переклад: оригінал
кодек: -MA 2.0
бітрейт: 893 кб/с

Субтитри:
мова: англійська
тип: програмні (м'які)
формат: *.srt

Збережено оригінальні розділи, як на Blu-ray.
Info
General
Unique ID : 294614543506106239308067794829746299827 (0xDDA4B277B43B94ABCAF1E3EB0E52E3B3)
Complete name : F:\Вестерни\My Name is Nobody Il mio nome è Nessuno (1973) Remux 1080p UkrEng Sub Eng [Hurtom].
Format :
Format version : Version 4 / Version 2
File size : 27.7 GiB
Duration : 1 h 55 min
Overall bit rate mode : Variable
Overall bit rate : 34.2 Mb/s
Movie name : Мене звуть Ніхто / My Name is Nobody / Il mio nome è Nessuno (1973) Remux 1080p Ukr/Eng | Sub Eng [Hurtom]
Encoded date : UTC 2019-03-16 21:10:14
Writing application : v25.0.0 ('Prog Noir') 64-bit
Writing library : libebml v1.3.6 + v1.4.9

Video
ID : 1
Format : AVC
Format/Info : Advanced Video Codec
Format profile : [email protected]
Format settings, CABAC : Yes
Format settings, RefFrames : 2 frames
Codec ID : V_MPEG4/ISO/AVC
Duration : 1 h 55 min
Bit rate mode : Variable
Bit rate : 33.0 Mb/s
Width : 1 920 pixels
Height : 1 080 pixels
Display aspect ratio : 16:9
Frame rate mode : Constant
Frame rate : 23.976 (24000/1001) FPS
Color space : YUV
Chroma subsampling : 4:2:0
Bit depth : 8 bits
Scan type : Progressive
Bits/(Pixel*Frame) : 0.663
Stream size : 26.7 GiB (96%)
Title : My Name is Nobody / Il mio nome è Nessuno (1973) Remux 1080p Ukr/Eng | Sub Eng [Hurtom]
Language : Ukrainian
Default : Yes
Forced : Yes

Audio #1
ID : 2
Format : AC-3
Format/Info : Audio Coding 3
Format settings, Endianness : Big
Codec ID : A_AC3
Duration : 1 h 55 min
Bit rate mode : Constant
Bit rate : 192 kb/s
Channel(s) : 2 channels
Channel positions : Front: L R
Sampling rate : 48.0 kHz
Frame rate : 31.250 FPS (1536 SPF)
Bit depth : 16 bits
Compression mode : Lossy
Stream size : 159 MiB (1%)
Title : DVO [2+2]
Language : Ukrainian
Service kind : Complete Main
Default : Yes
Forced : No

Audio #2
ID : 3
Format : AC-3
Format/Info : Audio Coding 3
Format settings, Endianness : Big
Codec ID : A_AC3
Duration : 1 h 55 min
Bit rate mode : Constant
Bit rate : 192 kb/s
Channel(s) : 2 channels
Channel positions : Front: L R
Sampling rate : 48.0 kHz
Frame rate : 31.250 FPS (1536 SPF)
Bit depth : 16 bits
Compression mode : Lossy
Stream size : 159 MiB (1%)
Title : Original AC-3
Language : English
Service kind : Complete Main
Default : No
Forced : No

Audio #3
ID : 4
Format :
Format/Info : Digital Theater Systems
Format profile : MA / Core
Mode : 16
Format settings, Endianness : Big
Codec ID : A_DTS
Duration : 1 h 55 min
Bit rate mode : Variable / Constant
Bit rate : 893 kb/s / 768 kb/s
Channel(s) : 2 channels
Channel positions : Front: L R
Sampling rate : 48.0 kHz
Frame rate : 93.750 FPS (512 SPF)
Bit depth : 16 bits
Compression mode : Lossless / Lossy
Stream size : 740 MiB (3%)
Title : Original -HD MA
Language : English
Default : No
Forced : No

Text
ID : 5
Format : UTF-8
Codec ID : S_TEXT/UTF8
Codec ID/Info : UTF-8 Plain Text
Duration : 1 h 50 min
Bit rate : 28 b/s
Count of elements : 650
Stream size : 23.0 KiB (0%)
Title : Eng
Language : English
Default : No
Forced : No

Menu
00:00:00.000 : en:00:00:00.000
00:11:20.305 : en:00:11:20.305
00:19:29.168 : en:00:19:29.168
00:29:45.242 : en:00:29:45.242
00:40:23.087 : en:00:40:23.087
00:44:47.101 : en:00:44:47.101
00:56:54.870 : en:00:56:54.870
01:04:16.644 : en:01:04:16.644
01:08:27.562 : en:01:08:27.562
01:11:25.364 : en:01:11:25.364
01:20:20.983 : en:01:20:20.983
01:26:41.530 : en:01:26:41.530
01:31:33.321 : en:01:31:33.321
01:35:44.280 : en:01:35:44.280
01:48:27.584 : en:01:48:27.584
01:54:33.992 : en:01:54:33.992
Скріншоти
Джерело: &
Подяка за українську доріжку : п. robotron005 - зведення, п. MAKAPOHHIK - запис з ТБ; українізований постер - Пан_Олександр.
Особиста оцінка: 10 - без зайвих вагань рекомендую всім!


Золотий реліз (завантажене не впливає на рейтинг)
 Трекер:    Зареєстрований   

Завантажити / скачати фільм українською



відео для новачків



 Зареєстрований:   2019-03-17 21:15
 Розмір:   27.71 GB 
 Оцінка фільму:   10/10 (Голосів: 7)
   
Bariska 
Частий відвідувач


З нами з: 28.02.19
Востаннє: 18.04.19
Повідомлень: 33

2019-03-18 10:04  
1080p + AVC
Ваш часовий пояс: GMT + 2 Години

Нова тема   Відповісти