Шоу Ґарфілда / The Garfield Show (Сезон 1, 13 серій з 26) (2009) 720p Ukr/Eng

Нові коментарі

Нова тема   Відповісти
Останній раз роздавалося sergiyko.5 (2019-06-16)
Автор Повідомлення
sergiyko.5 
VIP


З нами з: 25.02.16
Востаннє: 16.06.19
Повідомлень: 2327

2019-03-17 17:32  
Шоу Ґарфілда / The Garfield Show (Сезон 1) (2009) 720p Ukr/Eng

Шоу Ґарфілда / The Garfield Show (Сезон 1, 13 серій з 26) (2009) 720p Ukr/Eng

Жанр: пригоди, комедія
Країна: Франція, США
Кінокомпанія: Centre National de la Cinématographie (CNC), Dargaud Marina
Режисер: Філіпп Відал

Сюжет:
Чарівний любитель лазаньї, товстий і ледачий, але в той же час розумний і хитрий кіт Гарфілд знову з нами! У цьому випуску його безтурботне і ліниве існування буде порушено прибульцями, вторгненням мишей, турботою про кинутих пташенят і пустощами життєрадісного пса Одді. Захоплюючі пригоди Гарфілда починаються!




Тривалість: 1 серія: 23:44 (цілком серій: 13 з 26)
Якість: 720p

Відео: кодек: розмір кадру: 1280 х 720 бітрейт: ~ 2 000 кб/с
Аудіо # 1: мова: українська переклад: професійний дубльований кодек: 2.0 бітрейт: 192 кб/с
Озвучення:
Аудіо # 2: мова: англійська переклад: оригінал кодек: E- 2.0 бітрейт: 128 кб/с
Перелік серій:
01.Pasta Wars-Mother Garfield
02.Orange and Black-Freaky Monday
03.Bone Diggers-The Robot
04.Catnap-Agent X
05.A Game of Cat and Mouse-Perfect Pizza
06.King Nermal-Desperately Seeking Pooky
07.High Scale-Jon's Night Out
08.Not So Sweet Sound of Music-Turkey Trouble
09.Pup in the Pound-Odie in Love
10.Pet Matchers-Lucky Charm
11.Curse of the Were Dog-Meet the Parents
12.Down on the Farm-The Pet Show
13.Curse of the Cat People-Glenda and Odessa
Про файл:
General
Unique ID : 303708229957633942067232378731330815103 (0xE47C13D351B76F3CF5C8CBBD3740447F)
Complete name : G:\Torrents2\MULT\MuSERIAL\The Garfield Show S01 720p \S01E01.Pasta Wars-Mother Garfield.720p..
Format :
Format version : Version 4
File size : 371 MiB
Duration : 23 min 43 s
Overall bit rate mode : Variable
Overall bit rate : 2 185 kb/s
Movie name : The Garfield Show S01 720p by sergiyko
Encoded date : UTC 2019-03-17 13:57:05
Writing application : v32.0.0 ('Astral Progressions') 64-bit
Writing library : libebml v1.3.7 + v1.5.0

Video
ID : 1
Format : AVC
Format/Info : Advanced Video Codec
Format profile : [email protected]
Format settings : CABAC / 3 Ref Frames
Format settings, CABAC : Yes
Format settings, ReFrames : 3 frames
Codec ID : V_MPEG4/ISO/AVC
Duration : 23 min 43 s
Bit rate mode : Variable
Bit rate : 1 870 kb/s
Maximum bit rate : 2 805 kb/s
Width : 1 280 pixels
Height : 720 pixels
Display aspect ratio : 16:9
Frame rate mode : Constant
Frame rate : 25.000 FPS
Color space : YUV
Chroma subsampling : 4:2:0
Bit depth : 8 bits
Scan type : Progressive
Bits/(Pixel*Frame) : 0.081
Stream size : 316 MiB (85%)
Writing library : core 148 r2714 2daf636
Encoding settings : cabac=1 / ref=3 / deblock=1:0:0 / analyse=0x1:0x111 / me=umh / subme=10 / psy=1 / psy_rd=1.00:0.00 / mixed_ref=1 / me_range=24 / chroma_me=1 / trellis=2 / 8x8dct=0 / cqm=0 / deadzone=21,11 / fast_pskip=1 / chroma_qp_offset=-2 / threads=8 / lookahead_threads=1 / sliced_threads=0 / nr=0 / decimate=1 / interlaced=0 / bluray_compat=0 / stitchable=1 / constrained_intra=0 / bframes=2 / b_pyramid=0 / b_adapt=2 / b_bias=0 / direct=3 / weightb=1 / open_gop=0 / weightp=2 / keyint=50 / keyint_min=26 / scenecut=0 / intra_refresh=0 / rc_lookahead=50 / rc=2pass / mbtree=1 / bitrate=1870 / ratetol=1.0 / qcomp=0.50 / qpmin=6 / qpmax=51 / qpstep=4 / cplxblur=20.0 / qblur=0.5 / vbv_maxrate=2805 / vbv_bufsize=3740 / nal_hrd=vbr / filler=0 / ip_ratio=1.40 / aq=1:1.00
Language : English
Default : Yes
Forced : No

Audio #1
ID : 2
Format : AC-3
Format/Info : Audio Coding 3
Commercial name : Dolby Digital
Codec ID : A_AC3
Duration : 23 min 43 s
Bit rate mode : Constant
Bit rate : 192 kb/s
Channel(s) : 2 channels
Channel layout : L R
Sampling rate : 48.0 kHz
Frame rate : 31.250 FPS (1536 SPF)
Bit depth : 16 bits
Compression mode : Lossy
Stream size : 32.6 MiB (9%)
Title : DUB | К1
Language : Ukrainian
Service kind : Complete Main
Default : Yes
Forced : Yes

Audio #2
ID : 3
Format : E-AC-3
Format/Info : Enhanced AC-3
Commercial name : Dolby Digital Plus
Codec ID : A_EAC3
Duration : 23 min 43 s
Bit rate mode : Constant
Bit rate : 128 kb/s
Channel(s) : 2 channels
Channel layout : L R
Sampling rate : 48.0 kHz
Frame rate : 31.250 FPS (1536 SPF)
Compression mode : Lossy
Stream size : 21.7 MiB (6%)
Language : English
Service kind : Complete Main
Default : No
Forced : No
Скріншоти:



Запис/зведення: sergiyko


Бронзовий реліз (на рейтинг впливає 75% завантаженого)
 Трекер:    Зареєстрований   

Завантажити / скачати мультфільм українською



відео для новачків



 Зареєстрований:   2019-03-17 17:38
 Розмір:   5.18 GB 
 Оцінка мультсеріалу:   10/10 (Голосів: 4)
   
Simca 
Частий відвідувач


З нами з: 14.11.11
Востаннє: 26.05.19
Повідомлень: 33

2019-04-05 08:25  
Я пишу цей мульт
Відсутні серіі можу надати Бо там вже другий сезон йде здається

sergiyko.5 
VIP


З нами з: 25.02.16
Востаннє: 16.06.19
Повідомлень: 2327

2019-04-05 18:43  
Simca
Дякую. В мене є багато записів, які треба різати, каталогізувати, синхронізувати, зводити, релізити. Багато роботи прямої і контентної, з часом буде і тут оновлення.

Ваш часовий пояс: GMT + 2 Години

Нова тема   Відповісти