Аквамен / Aquaman [IMAX Edition] (2018) 1080p H.265 Ukr/Eng | Sub Eng

Нові коментарі

Нова тема   Відповісти
Автор Повідомлення
Anonymous 







2019-03-17 13:40  
Аквамен / Aquaman [IMAX Edition] (2018) 1080p H.265 Ukr/Eng | Sub Eng

Аквамен / Aquaman [IMAX Edition] (2018) 1080p H.265 Ukr/Eng | Sub Eng


Жанр: пригодницький, фантастика, екшн
Країна: США, Австралія
Кінокомпанія: Warner Bros., DC Entertainment, DC Comics
Режисер: Джеймс Ван
Актори: Джейсон Момоа, Ембер Герд, Віллем Дефо, Патрік Вілсон, Дольф Лундґрен, Ях'я Абдул-Матін II, Ніколь Кідман, Ґрем Мактавіш, Джимон Гунсу, Рендолл Парк, Джулі Ендрюс, Лі Воннелл

Сюжет:
Кожен із нас може хоч на трішки змінити світ, якщо того захоче. Але серед нас є навіть ті, яким на долі написано вплинути на майбутнє всього людства. Артур Каррі має вельми незвичайну пару батьків: його тато був працівником маяка, а мати – королевою Атлантиди на ім'я Атланна, яку вигнали з царства. Хлопчик виріс, не знаючи про свої сили. Він умів довго затримувати дихання під водою та розмовляв з рибами, але не підозрював, що може зайняти трон Атлантиди. Зараз його тримає зведений брат Артура на ім'я Орм. На жаль, цей хлопець не має добрих намірів до надводного світу та збирається його знищити. Артур, як дитя двох світів, повинен об'єднати їх і не дати Орму зруйнувати цей крихкий мир.

Тривалість: 02:23:21
Якість:
Відео:
кодек: H.265 (HEVC)
розмір кадру: 1920 x 1080
бітрейт: 10 110 кб/с
бітова глибина: 10 біт
Увага! Перед завантаженням переконайтесь, що ваш пристрій відтворення (та/або ПЗ) підтримує H.265 (HEVC)

Аудіо # 1:
мова: українська
переклад: професійний дубльований
кодек: AC-3 2.0
бітрейт: 192 кб/с

Аудіо # 2:
мова: англійська
переклад: оригінал
кодек: AC-3 5.1
бітрейт: 448 кб/с

Субтитри # 1:
мова: українська (Forced),
тип: програмні (м'які)
формат: *.srt

Субтитри # 2:
мова: англійська (Full),
тип: програмні (м'які)
формат: *.srt


Info
Код:
General
Unique ID                                : 321859053971525330325950062795432230024 (0xF223CC8AB680514C0D3619AD0D417C88)
Complete name                            : F:\Video\Aquaman (2018) 1080p H.265 [IMAX] [UKR_ENG] [Hurtom].
Format                                   :
Format version                           : Version 4 / Version 2
File size                                : 10.8 GiB
Duration                                 : 2 h 23 min
Overall bit rate                         : 10.8 Mb/s
Movie name                               : Aquaman (2018)
Encoded date                             : UTC 2019-03-16 13:01:28
Writing application                      : v20.0.0 ('I Am The Sun') 64-bit
Writing library                          : libebml v1.3.5 + v1.4.8
Cover                                    : Yes
Attachments                              : cover.jpg

Video
ID                                       : 1
Format                                   : HEVC
Format/Info                              : High Efficiency Video Coding
Format profile                           : Main [email protected]@High
Codec ID                                 : V_MPEGH/ISO/HEVC
Duration                                 : 2 h 23 min
Bit rate                                 : 10.1 Mb/s
Width                                    : 1 920 pixels
Height                                   : 1 080 pixels
Display aspect ratio                     : 16:9
Frame rate mode                          : Constant
Frame rate                               : 23.976 (24000/1001) FPS
Color space                              : YUV
Chroma subsampling                       : 4:2:0
Bit depth                                : 10 bits
Bits/(Pixel*Frame)                       : 0.203
Stream size                              : 10.1 GiB (94%)
Title                                    : Aquaman (2018)
Language                                 : English
Default                                  : Yes
Forced                                   : No
Color range                              : Limited
Matrix coefficients                      : BT.709

Audio #1
ID                                       : 2
Format                                   : AC-3
Format/Info                              : Audio Coding 3
Codec ID                                 : A_AC3
Duration                                 : 2 h 23 min
Bit rate mode                            : Constant
Bit rate                                 : 192 kb/s
Channel(s)                               : 2 channels
Channel positions                        : Front: L R
Sampling rate                            : 48.0 kHz
Frame rate                               : 31.250 FPS (1536 SPF)
Bit depth                                : 16 bits
Compression mode                         : Lossy
Stream size                              : 197 MiB (2%)
Title                                    : ПД - iTunes - 2.0 @ 192 kbps
Language                                 : Ukrainian
Service kind                             : Complete Main
Default                                  : Yes
Forced                                   : Yes

Audio #2
ID                                       : 3
Format                                   : AC-3
Format/Info                              : Audio Coding 3
Codec ID                                 : A_AC3
Duration                                 : 2 h 23 min
Bit rate mode                            : Constant
Bit rate                                 : 448 kb/s
Channel(s)                               : 6 channels
Channel positions                        : Front: L C R, Side: L R, LFE
Sampling rate                            : 48.0 kHz
Frame rate                               : 31.250 FPS (1536 SPF)
Bit depth                                : 16 bits
Compression mode                         : Lossy
Stream size                              : 459 MiB (4%)
Title                                    : Original - 5.1 @ 448 kbps
Language                                 : English
Service kind                             : Complete Main
Default                                  : No
Forced                                   : No

Text #1
ID                                       : 4
Format                                   : UTF-8
Codec ID                                 : S_TEXT/UTF8
Codec ID/Info                            : UTF-8 Plain Text
Duration                                 : 2 h 22 min
Bit rate                                 : 1 b/s
Count of elements                        : 32
Stream size                              : 1.54 KiB (0%)
Title                                    : Forced
Language                                 : Ukrainian
Default                                  : Yes
Forced                                   : Yes

Text #2
ID                                       : 5
Format                                   : UTF-8
Codec ID                                 : S_TEXT/UTF8
Codec ID/Info                            : UTF-8 Plain Text
Duration                                 : 2 h 14 min
Bit rate                                 : 38 b/s
Count of elements                        : 1132
Stream size                              : 37.5 KiB (0%)
Title                                    : Full
Language                                 : English
Default                                  : No
Forced                                   : No

Menu
00:00:00.000                             : en:Chapter 01
00:11:09.294                             : en:Chapter 02
00:22:11.622                             : en:Chapter 03
00:30:11.018                             : en:Chapter 04
00:40:28.718                             : en:Chapter 05
00:50:24.647                             : en:Chapter 06
01:01:15.755                             : en:Chapter 07
01:08:57.091                             : en:Chapter 08
01:21:41.271                             : en:Chapter 09
01:34:50.435                             : en:Chapter 10
01:39:37.430                             : en:Chapter 11
01:49:32.816                             : en:Chapter 12
02:01:36.539                             : en:Chapter 13
02:10:19.895                             : en:Chapter 14
Світлини





Джерело: &
Особиста оцінка: 0 - не дивився


 Трекер:    Зареєстрований   

Завантажити / скачати фільм українською



відео для новачків



 Зареєстрований:   2019-03-17 13:40
 Розмір:   10.77 GB 
 Оцінка фільму:   9.5/10 (Голосів: 20)
   
Інші релізи
   Аквамен / Aquaman [IMAX Edition] (2018) UHD Remux 4K 2160p HDR H.265 Ukr/Eng | Sub Eng antik_2008  4 / 0   57.25 GB   2019-07-09 18:19 
   Аквамен / Aquaman (2018) Remux 1080p Ukr/Eng | Sub Eng antik_2008  2 / 0   22.72 GB   2019-07-09 16:34 
   Аквамен / Aquaman [IMAX Edition] (2018) Ukr/Eng antik_2008  8 / 0   2.98 GB   2019-07-09 16:31 
   Аквамен / Aquaman [IMAX Edition] (2018) 1080p Ukr/Eng | Sub Eng antik_2008  1 / 0   19.31 GB   2019-07-09 10:10 
   Аквамен / Aquaman (2018) 1080p Ukr/Eng | Sub Eng antik_2008  5 / 0   8.34 GB   2019-07-09 10:05 
   Аквамен / Aquaman [IMAX Edition] (2018) Remux 1080p Ukr/Eng | Sub Eng antik_2008  0 / 0   26.78 GB   2019-07-09 10:03 
   Аквамен / Aquaman (2018) AVC (IMAX Edition) Ukr/Eng | Sub Eng 11FrYkT  8 / 0   3.07 GB   2019-07-08 07:51 
   Аквамен / Aquaman (2018) 720p (IMAX Edition) Ukr/Eng | Sub Eng 11FrYkT  8 / 0   8.07 GB   2019-07-08 07:45 
   Аквамен / Aquaman (2018) (IMAX Edition) uafilm.tv  19 / 0   1.5 GB   2019-03-24 14:03 
   Аквамен / Aquaman [Open Matte] (2018) 1080p Ukr/Eng | Sub Eng antik_2008  4 / 0   5.61 GB   2019-03-11 23:41 
   Аквамен / Aquaman (2018) UHD 4K 2160p HDR H.265 Ukr/Eng | Sub Eng antik_2008  7 / 0   14.4 GB   2019-03-07 11:37 
   Аквамен / Aquaman (2018) AVC Ukr| Sub Kor Kinomania.studio  2 / 0   1.86 GB   2019-02-14 20:27 
Ваш часовий пояс: GMT + 2 Години

Нова тема   Відповісти