Формула 1. Сезон 2019. Етап 1. Гран-Прі Австралії. Гонка (17.03.2019) 720p 60fps Ukr/Eng

Нові коментарі

Нова тема   Відповісти
Автор Повідомлення
sergiyko.5 
VIP


З нами з: 25.02.16
Востаннє: 26.05.19
Повідомлень: 2296

2019-03-17 13:13  
Формула 1. Сезон 2019. Етап 1. Гран-Прі Австралії. Гонка (17.03.2019) 720p 60fps Ukr/Eng

Формула 1. Сезон 2019. Етап 1. Гран-Прі Австралії. Гонка (17.03.2019) 720p 60fps Ukr/Eng

Жанр: Перегони Формули 1
Країна: Австралія
Телеканал: SkySports F1HD
Коментатор: Максим Подзігун

Опис:
Гонка першого етапу Гран-Прі Австралії 2019 року.


Якість:

Відео:кодек: розмір кадру: 1280 х 720 бітрейт: 6000 кб/с
Аудіо # 1: мова: українська кодек: MP2 2.0 бітрейт: 192 кб/с
Аудіо # 2: мова: англійська кодек: 2.0 бітрейт: 68 кб/с
Тривалість:
01:58:43
Про файл:
General
Unique ID : 68114396490966043305098395683057587952 (0x333E5B079755172A4976FCF1A11856F0)
Complete name : G:\Torrents2\SPORT\Formula 1\F1.2019.Race\F1.2019.01.Australia.Race.720p..Ukr.Eng.
Format :
Format version : Version 4
File size : 5.18 GiB
Duration : 1 h 58 min
Overall bit rate : 6 249 kb/s
Movie name : F1 2019 01 Australia Race 720p by sergiyko
Encoded date : UTC 2019-03-17 10:02:11
Writing application : v32.0.0 ('Astral Progressions') 64-bit
Writing library : libebml v1.3.7 + v1.5.0

Video
ID : 1
Format : AVC
Format/Info : Advanced Video Codec
Format profile : [email protected]
Format settings : CABAC / 2 Ref Frames
Format settings, CABAC : Yes
Format settings, ReFrames : 2 frames
Codec ID : V_MPEG4/ISO/AVC
Duration : 1 h 58 min
Bit rate : 6 000 kb/s
Width : 1 280 pixels
Height : 720 pixels
Display aspect ratio : 16:9
Frame rate mode : Constant
Frame rate : 59.940 (59940/1000) FPS
Color space : YUV
Chroma subsampling : 4:2:0
Bit depth : 8 bits
Scan type : Progressive
Bits/(Pixel*Frame) : 0.109
Stream size : 4.97 GiB (96%)
Writing library : core 148 r2579M 73ae2d1
Encoding settings : cabac=1 / ref=2 / deblock=1:0:0 / analyse=0x3:0x113 / me=hex / subme=2 / psy=1 / psy_rd=1.00:0.00 / mixed_ref=0 / me_range=16 / chroma_me=1 / trellis=0 / 8x8dct=1 / cqm=0 / deadzone=21,11 / fast_pskip=1 / chroma_qp_offset=0 / threads=4 / lookahead_threads=1 / sliced_threads=0 / nr=250 / decimate=1 / interlaced=0 / bluray_compat=0 / stitchable=1 / constrained_intra=0 / bframes=0 / weightp=1 / keyint=122 / keyint_min=12 / scenecut=40 / intra_refresh=0 / rc_lookahead=10 / rc=2pass / mbtree=1 / bitrate=6000 / ratetol=1.0 / qcomp=0.60 / qpmin=5 / qpmax=69 / qpstep=4 / cplxblur=20.0 / qblur=0.5 / ip_ratio=1.40 / aq=1:1.00
Language : English
Default : Yes
Forced : No

Audio #1
ID : 2
Format : MPEG Audio
Format version : Version 1
Format profile : Layer 2
Codec ID : A_MPEG/L2
Codec ID/Hint : MP2
Duration : 1 h 58 min
Bit rate mode : Constant
Bit rate : 192 kb/s
Channel(s) : 2 channels
Sampling rate : 48.0 kHz
Frame rate : 41.667 FPS (1152 SPF)
Compression mode : Lossy
Delay relative to video : -13 ms
Stream size : 163 MiB (3%)
Title : Максим Подзігун
Language : Ukrainian
Default : Yes
Forced : Yes

Audio #2
ID : 3
Format : LC SBR
Format/Info : Advanced Audio Codec Low Complexity with Spectral Band Replication
Commercial name : HE-
Format settings : Implicit
Codec ID : A_AAC-2
Duration : 1 h 58 min
Bit rate : 62.5 kb/s
Channel(s) : 2 channels
Channel layout : L R
Sampling rate : 48.0 kHz
Frame rate : 23.438 FPS (2048 SPF)
Compression mode : Lossy
Delay relative to video : -13 ms
Stream size : 53.1 MiB (1%)
Language : English
Default : No
Forced : No
Скріншоти:



Зведення: sergiyko


 Трекер:    Зареєстрований   

Завантажити / скачати торрент



відео для новачків



 Зареєстрований:   2019-03-17 13:13
 Розмір:   5.18 GB 
 Оцінка:   10/10 (Голосів: 21)
   
Umbrella.Corps 
Частий відвідувач


З нами з: 09.04.17
Востаннє: 26.05.19
Повідомлень: 39

2019-03-17 18:51  
Дякую за роздачу.
1080p буде?)

sergiyko.5 
VIP


З нами з: 25.02.16
Востаннє: 26.05.19
Повідомлень: 2296

2019-03-17 19:35  
Umbrella.Corps написано:
1080p буде?)

Від мене ні, немає якісного відео.

armogun 
Попереджень: 1
Попереджень: 1 


З нами з: 04.05.13
Востаннє: 26.05.19
Повідомлень: 478

2019-03-17 20:27  
А що це Подзігун за москаля переживає? Чи то був сарказм стосовно квята?

Додано через 2 хвилини 43 секунди:

Umbrella.Corps
Краще 720 з хорошим бітрейтом і кадрами ніж середнє фгд. Це відео якісне, качай сміло

sergiykos 
Новенький


З нами з: 29.05.18
Востаннє: 25.05.19
Повідомлень: 3

2019-03-17 21:48  
Здається до нас повернулось коментування у пабі а не на тв каналі, бо стало більше гумору та троління.
DimitriosXO 
Новенький


З нами з: 06.07.17
Востаннє: 26.05.19
Повідомлень: 8

2019-03-18 00:01  
sergiyko.5
А було б чудово)
Коли врешті решт ми дочекаємось фулхд мквешок з адекватним бітрейтом щоб запускати з тв через длна без нарпягів. Котрий рік з цими хдд вештаємось туди-сюди. Почуйте хтось наші молитви!
А за реліз дякую!

sergiyko.5 
VIP


З нами з: 25.02.16
Востаннє: 26.05.19
Повідомлень: 2296

2019-03-18 08:00  
DimitriosXO
Перше. Саме цей файл я закинув на флешку і відео мало чудову якість на 42' Філіпс 2011 року.
Друге. Кожен може навчитись писати, зводити, синхронізувати, кодувати, релізти. Візьміть хтось і зробіть корисну справу.

logonet 
Новенький


З нами з: 19.01.18
Востаннє: 25.05.19
Повідомлень: 5

2019-03-18 10:27  
Доброго дня.
Дякую за реліз. Виникла невелика проблема на dune hd max, не захотів читати файл Sad (1). Всі роздачі за минулий рік шли без проблем.
З ПК все ок.

sergiyko.5 
VIP


З нами з: 25.02.16
Востаннє: 26.05.19
Повідомлень: 2296

2019-03-18 11:02  
Я співчуваю. В мене дюна теж не змогла відтворити останню гонку.

Всі хто вантажать мої релізи перегонів Ф1 повинні зрозуміти один факт - я не записую відео і аудіо сам і не кодую, принаймні в цьому році. Я беру готові записи з інтернету, найкращі на момент часу зразу після трансляції і синхронізую звук і зображення. Що було, тим поділився, кращого варіанту в мене немає.

logonet 
Новенький


З нами з: 19.01.18
Востаннє: 25.05.19
Повідомлень: 5

2019-03-18 13:23  
sergiyko.5
Це було більше для інформації.
Дякую за Вашу роботу.

Dert 
Частий відвідувач


З нами з: 01.01.09
Востаннє: 11.04.19
Повідомлень: 34

2019-03-18 23:28  
Пдзігун
kewn 
Новенький


З нами з: 28.09.09
Востаннє: 19.03.19
Повідомлень: 2

2019-03-19 00:12  
Дякую за добру роботу!!!
DimitriosXO 
Новенький


З нами з: 06.07.17
Востаннє: 26.05.19
Повідомлень: 8

2019-03-25 06:13  
[b]sergiyko.5[/bзд
Але ж я без жодного докору, а навпаки, з повагою, висловив свою думку, яку, вважаю, розділяють тисячі глядачів. Я в кодуванні не тямлю, але фулхд, по пам'яті десь 8-9 МБ/с має бути оптимальним для великих екранів. Звісно з Максом-він тямущий!
А так, ми Вам, ентузіастам, і так безмежно вдячні за вашу працю. Що б ми без вас робили?)

sergiyko.5 
VIP


З нами з: 25.02.16
Востаннє: 26.05.19
Повідомлень: 2296

2019-03-25 11:44  
Відразу після трансляції немає якісного відео, немає вибору 720 чи 1080, що знаходиться більш-менш якісне, з того і роблю файл релізу.

Через деякий час, 12-20 годин, з'являються на рутрекері якісні ріпи з українським коментарем від Shewa1.

dima_lwp 
Новенький


З нами з: 11.07.15
Востаннє: 24.05.19
Повідомлень: 1

2019-03-25 22:23  
sergiyko.5

а де взяв озвучку Макса ?

Koful 
VIP


З нами з: 05.12.16
Востаннє: 26.05.19
Повідомлень: 270

2019-03-27 16:59  
Давно не дивився Формулу. Хто там тепер зірка після Шумахера? Wide grin
DimitriosXO 
Новенький


З нами з: 06.07.17
Востаннє: 26.05.19
Повідомлень: 8

2019-03-28 12:59  
Шева таке робить, що тв не відтворює.
legioneRRR 
Частий відвідувач


З нами з: 02.01.15
Востаннє: 26.05.19
Повідомлень: 32

2019-03-28 14:20  
Koful написано:
Давно не дивився Формулу. Хто там тепер зірка після Шумахера?

Виходить що реально давно не дивився Wide grin

Ваш часовий пояс: GMT + 2 Години

Нова тема   Відповісти