Молодий Шерлок Холмс / Young Sherlock Holmes (1985) AVC 2xUkr/Eng | sub Eng

Нові коментарі

Нова тема   Відповісти
Автор Повідомлення
Arsenfpu 
Відео Гуртом - фільмокрай
Відео Гуртом - фільмокрай


З нами з: 30.04.09
Востаннє: 02.07.20
Повідомлень: 7028

2019-03-17 11:10  
Молодий Шерлок Холмс / Young Sherlock Holmes (1985) AVC 2xUkr/Eng | sub Eng

Молодий Шерлок Холмс / Young Sherlock Holmes (1985) AVC 2xUkr/Eng | sub Eng


Жанр: детектив, трилер, пригодницький
Країна: США



Кінокомпанія: Paramount
Режисер: Баррі Левінсон
Актори: Ніколас Роу, Алан Кокс, Софі Ворд, Ентоні Хіггінс, Фредді Джонс, Сюзан Флітвуд

Сюжет:
Молодий Шерлок Холмс вчиться у престижній школі де знайомиться з Джоном Ватсоном. Вже в той час Шерлок вражав усіх однокласників своїми дедуктивними здібностями. В цей час у Лондоні відбувається серія таємничих вбивств за допомогою отруєних дротиків. Шерлок і Джон дізнаються про змову з метою вбивства великих британських бізнесменів. Вони беруться до розслідування своєї найпершої, але неймовірно заплутаної і небезпечної справи.


Тривалість: 01:48:52
Якість:
Відео:
кодек:
розмір кадру: 1024x576
бітрейт: 2599 кб/с

Аудіо # 1:
мова: українська
переклад: багатоголосий закадровий
кодек: 2.0
бітрейт: 192 кб/с

Аудіо # 2:
мова: українська
переклад: багатоголосий закадровий
кодек: 2.0
бітрейт: 192 кб/с

Аудіо # 3:
мова: англійська
переклад: оригінал
кодек: 2.0
бітрейт: 192 кб/с

Субтитри:
мова: англійська
тип: програмні (м'які)
формат: *.srt
Скріншоти














Про файл
General
Unique ID : 27922810015295218931814890999599523814 (0x1501BCD2F5ADB71AF91F962DE5B6E7E6)
Complete name : C:\Young Sherlock Holmes (1985) [2xUkr,Eng] AVC [Hurtom].
Format :
Format version : Version 4 / Version 2
File size : 2.42 GiB
Duration : 1 h 48 min
Overall bit rate : 3 178 kb/s
Movie name : Молодий Шерлок Холмс / Young Sherlock Holmes (1985)
Encoded date : UTC 2020-05-31 17:31:34
Writing application : v21.0.0 ('Tardigrades Will Inherit The Earth') 32-bit
Writing library : libebml v1.3.5 + v1.4.8
Cover : Yes
Attachments : cover.jpg

Video
ID : 1
Format : AVC
Format/Info : Advanced Video Codec
Format profile : [email protected]
Format settings, CABAC : Yes
Format settings, ReFrames : 11 frames
Codec ID : V_MPEG4/ISO/AVC
Duration : 1 h 48 min
Bit rate : 2 599 kb/s
Width : 1 024 pixels
Height : 576 pixels
Display aspect ratio : 16:9
Frame rate mode : Constant
Frame rate : 23.976 (24000/1001) FPS
Color space : YUV
Chroma subsampling : 4:2:0
Bit depth : 8 bits
Scan type : Progressive
Bits/(Pixel*Frame) : 0.184
Stream size : 1.98 GiB (82%)
Writing library : core 146 r2538 121396c
Encoding settings : cabac=1 / ref=11 / deblock=1:-2:-2 / analyse=0x3:0x133 / me=umh / subme=10 / psy=1 / psy_rd=1.00:0.15 / mixed_ref=1 / me_range=32 / chroma_me=1 / trellis=2 / 8x8dct=1 / cqm=0 / deadzone=21,11 / fast_pskip=0 / chroma_qp_offset=-3 / threads=12 / lookahead_threads=2 / sliced_threads=0 / nr=0 / decimate=0 / interlaced=0 / bluray_compat=0 / constrained_intra=0 / bframes=8 / b_pyramid=2 / b_adapt=2 / b_bias=0 / direct=3 / weightb=1 / open_gop=0 / weightp=2 / keyint=240 / keyint_min=23 / scenecut=40 / intra_refresh=0 / rc_lookahead=40 / rc=2pass / mbtree=0 / bitrate=2599 / ratetol=1.0 / qcomp=0.60 / qpmin=0 / qpmax=69 / qpstep=4 / cplxblur=20.0 / qblur=0.5 / vbv_maxrate=50000 / vbv_bufsize=62500 / nal_hrd=none / filler=0 / ip_ratio=1.40 / pb_ratio=1.30 / aq=2:0.90
Language : English
Default : Yes
Forced : No

Audio #1
ID : 2
Format : AC-3
Format/Info : Audio Coding 3
Mode extension : CM (complete main)
Format settings, Endianness : Big
Codec ID : A_AC3
Duration : 1 h 48 min
Bit rate mode : Constant
Bit rate : 192 kb/s
Channel(s) : 2 channels
Channel positions : Front: L R
Sampling rate : 48.0 kHz
Frame rate : 31.250 FPS (1536 spf)
Compression mode : Lossy
Stream size : 150 MiB (6%)
Language : Ukrainian
Default : Yes
Forced : Yes

Audio #2
ID : 3
Format : AC-3
Format/Info : Audio Coding 3
Mode extension : CM (complete main)
Format settings, Endianness : Big
Codec ID : A_AC3
Duration : 1 h 48 min
Bit rate mode : Constant
Bit rate : 192 kb/s
Channel(s) : 2 channels
Channel positions : Front: L R
Sampling rate : 48.0 kHz
Frame rate : 31.250 FPS (1536 spf)
Compression mode : Lossy
Stream size : 149 MiB (6%)
Title : К1
Language : Ukrainian
Default : No
Forced : No

Audio #3
ID : 4
Format : AC-3
Format/Info : Audio Coding 3
Mode extension : CM (complete main)
Format settings, Endianness : Big
Codec ID : A_AC3
Duration : 1 h 48 min
Bit rate mode : Constant
Bit rate : 192 kb/s
Channel(s) : 2 channels
Channel positions : Front: L R
Sampling rate : 48.0 kHz
Frame rate : 31.250 FPS (1536 spf)
Compression mode : Lossy
Stream size : 150 MiB (6%)
Language : English
Default : No
Forced : No

Text
ID : 5
Format : UTF-8
Codec ID : S_TEXT/UTF8
Codec ID/Info : UTF-8 Plain Text
Duration : 1 h 47 min
Bit rate : 49 b/s
Count of elements : 1567
Stream size : 38.8 KiB (0%)
Language : English
Default : No
Forced : No

Menu
00:00:00.000 : en:Holiday Tidings
00:07:03.000 : en:An Extraordinary Individual
00:14:42.000 : en:No Better Pupil
00:19:48.000 : en:The Knight
00:24:05.000 : en:The Game is Afoot
00:32:33.000 : en:One Last Duel
00:36:01.000 : en:Never Trust the Obvious
00:46:05.000 : en:Searching For Clues
00:52:27.000 : en:Tip of the Iceberg
01:04:32.000 : en:A Great Detective
01:09:58.000 : en:The Only Surviving Member
01:23:17.000 : en:The Ring
01:29:33.000 : en:The Fifth Princess
01:37:06.000 : en:Battle of Emotions
01:46:24.000 : en:Merry Christmas
Джерело:
За першу доріжку дякую пану Кіт Баюн
За запис з К1 дякую пану РОМЕО
Особиста оцінка: не дивився


Срібний реліз (на рейтинг впливає 50% завантаженого)
 Трекер:    Зареєстрований   

Завантажити / скачати фільм українською



відео для новачків



 Зареєстрований:   2020-05-31 21:01
 Розмір:   2.42 GB 
 Оцінка фільму:   9.9/10 (Голосів: 9)
   
oksana1717 
Новенький


З нами з: 16.04.15
Востаннє: 30.06.20
Повідомлень: 5

2019-03-17 21:38  
якщо самий знаменитий - скільки можна!
ssTAss 
Модератор музики


З нами з: 05.07.08
Востаннє: 02.07.20
Повідомлень: 16658

2019-03-18 00:24  
oksana1717 написано:
скільки можна!

Ви тільки це зауважили? На жаль, там цілий текст кацапізмів (напевно, гугл-переклад)
Arsenfpu написано:
самий знаменитий

Arsenfpu написано:
сищік

Arsenfpu написано:
дорогий друг!

Arsenfpu написано:
приступають до

Arsenfpu написано:
свого найпершого

oksana1717
запропонуйте краще свій опис)
Arsenfpu
може з вікі опис взяти?
Цитата:
Молодий Шерлок Холмс вчиться у престижній школі де знайомиться з Джоном Ватсоном. Вже в той час Шерлок вражав усіх однокласників своїми дедуктивними здібностями. В цей час у Лондоні відбувається серія таємничих вбивств за допомогою отруєних дротиків. Шерлок і Джон дізнаються про змову з метою вбивства великих британських бізнесменів. Вони приступають до (беруться до) розслідування своєї найпершої, але неймовірно заплутаної і небезпечної справи.

Arsenfpu 
Відео Гуртом - фільмокрай
Відео Гуртом - фільмокрай


З нами з: 30.04.09
Востаннє: 02.07.20
Повідомлень: 7028

2019-03-18 00:32  
ssTAss написано:
може з вікі опис взяти?

Можу.
ssTAss написано:

oksana1717
запропонуйте краще свій опис)

А оце правильно. До роботи, пані, а не тільки носом тикати когось Wink (2)

ssTAss 
Модератор музики


З нами з: 05.07.08
Востаннє: 02.07.20
Повідомлень: 16658

2019-03-18 00:34  
Arsenfpu написано:
Можу.

дякую, але "беруться до" (те, що в дужках) це я дописав як заміну для "приступають до"
тому краще оберіть якийсь один варіант.. ніби і "приступають" не зовсім помилка, але краще "беруться"

Arsenfpu 
Відео Гуртом - фільмокрай
Відео Гуртом - фільмокрай


З нами з: 30.04.09
Востаннє: 02.07.20
Повідомлень: 7028

2020-05-31 21:02  
Реліз оновлено!
Додано озвучення від К1

igor911 
Модератор відео


З нами з: 18.01.08
Востаннє: 02.07.20
Повідомлень: 14852

2020-05-31 21:39  
Перша доріжка з Нового каналу (в старому релізі зображення біля доріжки в описі мертве, але з назви файлу 06novyiy1.jpg можна здогадатись).
pvm65 
Свій


З нами з: 02.01.16
Востаннє: 01.07.20
Повідомлень: 108

2020-06-28 18:20  
Остання хвилина без перекладу в обох озвучках
Ваш часовий пояс: GMT + 2 Години

Нова тема   Відповісти