Формула 1. Сезон 2019. Етап 1. Гран-Прі Австралії. Кваліфікація (16.03.2019) 1080p Ukr/Eng

Нові коментарі

Нова тема   Відповісти
Автор Повідомлення
sergiyko.5 
VIP


З нами з: 25.02.16
Востаннє: 16.06.19
Повідомлень: 2327

2019-03-16 22:41  
Формула 1. Сезон 2019. Етап 1. Гран-Прі Австралії. Кваліфікація (16.03.2019) 1080p Ukr/Eng

Формула 1. Сезон 2019. Етап 1. Гран-Прі Австралії. Кваліфікація (16.03.2019) 1080p Ukr/Eng

Жанр: Перегони Формули 1
Країна: Австралія
Телеканал: -
Коментатор: Максим Подзігун

Опис:
Кваліфікація першого етапу Гран-Прі Австралії 2019 року.


Якість:

Відео:кодек: розмір кадру: 1920 х 1080 бітрейт: 5200 кб/с
Аудіо # 1: мова: українська кодек: MP2 2.0 бітрейт: 192 кб/с
Аудіо # 2: мова: англійська кодек: 2.0 бітрейт: 128 кб/с
Тривалість:
01:15:44
Про файл:
General
Unique ID : 234218798741115784928099092166445515711 (0xB034E65983DE7653F6484F67D48243BF)
Complete name : G:\Torrents2\SPORT\Formula 1\F1.2019.Qualifying\F1.2019.01.Australia.Qualifying.1080p..Ukr.Eng.
Format :
Format version : Version 4
File size : 2.90 GiB
Duration : 1 h 15 min
Overall bit rate : 5 490 kb/s
Encoded date : UTC 2019-03-16 19:34:34
Writing application : v32.0.0 ('Astral Progressions') 64-bit
Writing library : libebml v1.3.7 + v1.5.0

Video
ID : 1
Format : AVC
Format/Info : Advanced Video Codec
Format profile : [email protected]
Format settings : CABAC / 4 Ref Frames
Format settings, CABAC : Yes
Format settings, ReFrames : 4 frames
Codec ID : V_MPEG4/ISO/AVC
Duration : 1 h 15 min
Bit rate : 5 170 kb/s
Width : 1 920 pixels
Height : 1 080 pixels
Display aspect ratio : 16:9
Frame rate mode : Constant
Frame rate : 25.000 FPS
Color space : YUV
Chroma subsampling : 4:2:0
Bit depth : 8 bits
Scan type : Progressive
Bits/(Pixel*Frame) : 0.100
Stream size : 2.73 GiB (94%)
Language : English
Default : Yes
Forced : No

Audio #1
ID : 2
Format : MPEG Audio
Format version : Version 1
Format profile : Layer 2
Codec ID : A_MPEG/L2
Codec ID/Hint : MP2
Duration : 1 h 15 min
Bit rate mode : Constant
Bit rate : 192 kb/s
Channel(s) : 2 channels
Sampling rate : 48.0 kHz
Frame rate : 41.667 FPS (1152 SPF)
Compression mode : Lossy
Delay relative to video : 10 ms
Stream size : 104 MiB (3%)
Title : Максим Подзігун
Language : Ukrainian
Default : Yes
Forced : Yes

Audio #2
ID : 3
Format : LC
Format/Info : Advanced Audio Codec Low Complexity
Codec ID : A_AAC-2
Duration : 1 h 15 min
Bit rate : 125 kb/s
Channel(s) : 2 channels
Channel layout : L R
Sampling rate : 48.0 kHz
Frame rate : 46.875 FPS (1024 SPF)
Compression mode : Lossy
Delay relative to video : 5 ms
Stream size : 67.9 MiB (2%)
Language : English
Default : No
Forced : No
Скріншоти:



Зведення: sergiyko


 Трекер:    Зареєстрований   

Завантажити / скачати торрент



відео для новачків



 Зареєстрований:   2019-03-16 22:41
 Розмір:   2.9 GB 
 Оцінка:   9.9/10 (Голосів: 14)
   
antik_2008 
Релізер і модератор відео


З нами з: 20.10.08
Востаннє: 16.06.19
Повідомлень: 2052

2019-03-16 22:50  
Етап 1: Золото на тиждень.
fl_fl 
Відео Гуртом - фільмокрай
Відео Гуртом - фільмокрай


З нами з: 26.05.09
Востаннє: 16.06.19
Повідомлень: 3163

2019-03-16 23:04  
Звідки українська доріжка?
misha1977 
Новенький


З нами з: 15.04.18
Востаннє: 05.06.19
Повідомлень: 1

2019-03-16 23:29  
Фейсбуці є група F1UA там Макс Подзігун та Роман Гончаров, там знайдете інфу
mjkardash 
Новенький


З нами з: 01.03.11
Востаннє: 16.06.19
Повідомлень: 1

2019-03-16 23:45  
Можливо автор релізу підкаже, очікувати відео завтрашньої гонки о такій же порі?
sergiyko.5 
VIP


З нами з: 25.02.16
Востаннє: 16.06.19
Повідомлень: 2327

2019-03-16 23:56  
Можливо, якщо буде звук відео і орві пропаде.
Petrovcheg 
Новенький


З нами з: 10.01.17
Востаннє: 15.06.19
Повідомлень: 7

2019-03-17 10:36  
Не маєте в планах накладати звук на більш якісний відеоряд?
Дякую.

sergiyko.5 
VIP


З нами з: 25.02.16
Востаннє: 16.06.19
Повідомлень: 2327

2019-03-17 11:00  
Petrovcheg
А де його взяти? Надайте джерело.

forsage29 
Новенький


З нами з: 25.07.12
Востаннє: 10.06.19
Повідомлень: 16

2019-03-17 11:33  
sergiyko.5
Дякую! Вже не сподівався, що буде реліз!!!

SadreeK 
Новенький


З нами з: 14.08.18
Востаннє: 10.06.19
Повідомлень: 1

2019-03-17 12:09  
Дякую!Очікую на гонку)
Ваш часовий пояс: GMT + 2 Години

Нова тема   Відповісти