Снайпер / Sniper (1993) Remux 1080p 2xUkr/Eng | Sub Ukr/Eng

Нові коментарі

Нова тема   Відповісти
Автор Повідомлення
kryk-v.ya. 
VIP


З нами з: 14.02.14
Востаннє: 22.05.19
Повідомлень: 1211

2019-03-16 22:13  
Снайпер / Sniper (1993) Remux 1080p 2xUkr/Eng | Sub Ukr/Eng

Снайпер / Sniper (1993) Remux 1080p 2xUkr/Eng | Sub Ukr/Eng


Жанр: бойовик, трилер, драма
Країна: США, Перу



Кінокомпанія: Columbia Tristar Pictures
Режисер: Луіс Льоса /Luis Llosa
Актори: Том Беренджер /Tom Berenger/, Біллі Зейн /Billy Zane/, Дж. Т. Волш /J. T. Walsh/, Еден Янг /Aden Young/, Кен Редлі /Ken Radley/, Дейл Дай /Dale Dye

Сюжет:
У похмурих джунглях Панами затівається сходняк, на який повинен прибути знатний наркобарон з Колумбії. Після чого буде призначений державний переворот. Американський уряд відряджає на сходняк свого представника - кращого снайпера в регіоні, сержанта морської піхоти Томаса Беккета. У парі із сержантом Беккетом іде навідником молодий, недосвідчений і слабохарактерний олімпійський чемпіон із цивільних. На мiсцi напарники з'ясовують, хто з них чого вартий, i завдання опиняється пiд загрозою зриву...


Тривалість: 01:39:01
Якість: Remux 1080p
Відео:
кодек:
розмір кадру: 1920 х 1080
бітрейт: 18.0 Mбіт/с

Аудіо # 1:
мова: українська
переклад: багатоголосий закадровий | озвучено ТТП.
кодек: 2.0 (з 5.1)
бітрейт: 192 кб/с

Аудіо # 2:
мова: українська
переклад: багатоголосий закадровий | озвучено КіТ.
кодек: 2.0 (з 5.1)
бітрейт: 192 кб/с

Аудіо # 3:
мова: англійська
переклад: оригінал
кодек: -HD MA 5.1
бітрейт: 1978 кб/с

Субтитри:
мова:українська | (власне редагування)
тип: програмні (м'які)
формат: *.srt

Субтитри:
мова: англійська
тип: програмні (м'які)
формат: *.srt
Info
General
Unique ID : 19061998267209968518924757353593803685 (0xE57351355937E6E66F235EE46BB93A5)
Complete name : E:\Sniper (1993) Remux 1080p.
Format :
Format version : Version 4 / Version 2
File size : 14.1 GiB
Duration : 1 h 39 min
Overall bit rate mode : Variable
Overall bit rate : 20.4 Mb/s
Encoded date : UTC 2019-03-16 17:50:05
Writing application : v25.0.0 ('Prog Noir') 64-bit
Writing library : libebml v1.3.6 + v1.4.9
Cover : Yes
Attachments : cover.jpg

Video
ID : 1
Format : AVC
Format/Info : Advanced Video Codec
Format profile : [email protected]
Format settings : CABAC / 3 Ref Frames
Format settings, CABAC : Yes
Format settings, ReFrames : 3 frames
Codec ID : V_MPEG4/ISO/AVC
Duration : 1 h 39 min
Bit rate mode : Variable
Bit rate : 18.0 Mb/s
Maximum bit rate : 36.0 Mb/s
Width : 1 920 pixels
Height : 1 080 pixels
Display aspect ratio : 16:9
Frame rate mode : Constant
Frame rate : 23.976 (24000/1001) FPS
Standard : NTSC
Color space : YUV
Chroma subsampling : 4:2:0
Bit depth : 8 bits
Scan type : Progressive
Bits/(Pixel*Frame) : 0.362
Stream size : 12.4 GiB (88%)
Writing library : x264pro - Adobe CS Exporter Plug-in
Encoding settings : cabac=1 / ref=4 / deblock=1:-1:-1 / analyse=0x3:0x113 / me=umh / subme=8 / psy=1 / psy_rd=1.00:0.15 / mixed_ref=1 / me_range=16 / chroma_me=1 / trellis=1 / 8x8dct=1 / cqm=0 / deadzone=21,11 / fast_pskip=1 / chroma_qp_offset=-3 / threads=12 / lookahead_threads=2 / sliced_threads=0 / slices=4 / nr=0 / decimate=1 / interlaced=0 / bluray_compat=1 / constrained_intra=0 / bframes=3 / b_pyramid=1 / b_adapt=2 / b_bias=0 / direct=3 / weightb=1 / open_gop=0 / weightp=1 / keyint=24 / keyint_min=1 / scenecut=40 / intra_refresh=0 / rc_lookahead=24 / rc=2pass / mbtree=1 / bitrate=18000 / ratetol=1.0 / qcomp=0.60 / qpmin=0 / qpmax=69 / qpstep=4 / cplxblur=20.0 / qblur=0.5 / vbv_maxrate=36000 / vbv_bufsize=27000 / nal_hrd=vbr / ip_ratio=1.40 / aq=1:1.00
Default : Yes
Forced : No
Color range : Limited
Color primaries : BT.709
Transfer characteristics : BT.709
Matrix coefficients : BT.709

Audio #1
ID : 2
Format : AC-3
Format/Info : Audio Coding 3
Commercial name : Dolby Digital
Codec ID : A_AC3
Duration : 1 h 39 min
Bit rate mode : Constant
Bit rate : 192 kb/s
Channel(s) : 2 channels
Channel layout : L R
Sampling rate : 48.0 kHz
Frame rate : 31.250 FPS (1536 SPF)
Bit depth : 16 bits
Compression mode : Lossy
Stream size : 136 MiB (1%)
Title : MVO-TTP
Language : Ukrainian
Service kind : Complete Main
Default : Yes
Forced : No

Audio #2
ID : 3
Format : AC-3
Format/Info : Audio Coding 3
Commercial name : Dolby Digital
Codec ID : A_AC3
Duration : 1 h 39 min
Bit rate mode : Constant
Bit rate : 192 kb/s
Channel(s) : 2 channels
Channel layout : L R
Sampling rate : 48.0 kHz
Frame rate : 31.250 FPS (1536 SPF)
Bit depth : 16 bits
Compression mode : Lossy
Stream size : 136 MiB (1%)
Title : MVO-KiT
Language : Ukrainian
Service kind : Complete Main
Default : No
Forced : No

Audio #3
ID : 4
Format : XLL
Format/Info : Digital Theater Systems
Commercial name : -HD Master Audio
Codec ID : A_DTS
Duration : 1 h 39 min
Bit rate mode : Variable
Bit rate : 1 978 kb/s
Channel(s) : 6 channels
Channel layout : C L R Ls Rs LFE
Sampling rate : 48.0 kHz
Frame rate : 93.750 FPS (512 SPF)
Bit depth : 16 bits
Compression mode : Lossless
Stream size : 1.37 GiB (10%)
Title : Original
Language : English
Default : No
Forced : No

Text #1
ID : 5
Format : UTF-8
Codec ID : S_TEXT/UTF8
Codec ID/Info : UTF-8 Plain Text
Duration : 1 h 34 min
Bit rate : 48 b/s
Count of elements : 645
Stream size : 33.6 KiB (0%)
Title : full
Language : Ukrainian
Default : Yes
Forced : No

Text #2
ID : 6
Format : UTF-8
Codec ID : S_TEXT/UTF8
Codec ID/Info : UTF-8 Plain Text
Duration : 1 h 31 min
Bit rate : 28 b/s
Count of elements : 573
Stream size : 19.3 KiB (0%)
Title : full
Language : English
Default : No
Forced : No

Menu
00:00:00.000 : en:00:00:00.000 / en:Глава 01
00:07:04.758 : en:00:07:04.758
00:16:06.048 : en:00:16:06.048
00:25:32.114 : en:00:25:32.114
00:32:29.906 : en:00:32:29.906
00:41:24.816 : en:00:41:24.816
00:48:45.256 : en:00:48:45.256
00:56:52.492 : en:00:56:52.492
01:04:20.899 : en:01:04:20.899
01:15:30.901 : en:01:15:30.901
01:22:51.341 : en:01:22:51.341
01:29:28.822 : en:01:29:28.822
Скріншоти




Джерело: &
Особиста оцінка: 10 - без зайвих вагань рекомендую всім!

Велика подяка Romario_O, drakon87, Merdiff та dvorsky, Sando7, POMEO за зукозапис з Тб,
та пану _oles за синхронізацію.


Золотий реліз (завантажене не впливає на рейтинг)
 Трекер:    Зареєстрований   

Завантажити / скачати фільм українською



відео для новачків



 Зареєстрований:   2019-03-16 22:13
 Розмір:   14.08 GB 
 Оцінка фільму:   9.3/10 (Голосів: 6)
   
MakRA 
Поважний учасник


З нами з: 11.11.18
Востаннє: 22.05.19
Повідомлень: 198

2019-03-16 22:41  
Ооо, пан kryk-v.ya. добрався до цього фільму! Моє Величезне ДЯКУЮ! Шикарна картина!

Додано через 1 хвилину 24 секунди:

До речі, другий буде?

kryk-v.ya. 
VIP


З нами з: 14.02.14
Востаннє: 22.05.19
Повідомлень: 1211

2019-03-16 22:45  
MakRA
без сумніву, це вже класика...
на рахунок другого і третього...не знаю подивимся...

MakRA 
Поважний учасник


З нами з: 11.11.18
Востаннє: 22.05.19
Повідомлень: 198

2019-03-16 22:46  
kryk-v.ya.
За третій сам не знаю) А другий можна в колекцію.

Ваш часовий пояс: GMT + 2 Години

Нова тема   Відповісти