Брудний Джон (Сезон 1) / Dirty John (Season 1) (2018) 720p Ukr/Eng | Sub Eng

Нові коментарі

Нова тема   Відповісти
Останній раз роздавалося ssTAss (2019-06-16)
Автор Повідомлення
Anonymous 







2019-03-16 18:12  
Брудний Джон (Сезон 1) / Dirty John (Season 1) (2018) 720p Ukr/Eng | Sub Eng

Брудний Джон (Сезон 1) / Dirty John (Season 1) (2018) 720p Ukr/Eng | Sub Eng


Жанр: драма
Країна: США



Кінокомпанія: Atlas Entertainment, LA Times Studios, Universal Cable Productions
Режисер: Джеффрі Рейнер
Актори: Ерік Бана, Коні Брітон, Джулія Гарнер, Джуно Темпл, Олександр Гомез, Джейк Ейбел, Ванесса Мартінез, Брент Андерсон та інші

Сюжет:
Життя Дебри цілковито змінюється, коли у неї починається роман із лікарем Джоном. Але з часом Дебра розуміє, що втрапила у зловіщу гру психологічних маніпуляцій, а її новий бойфренд - геть не той, за кого себе видає.


Тривалість: 1 серія: ~ 50 хв. (цілком серій: 8)
Перелік серій
1. Approachable Dreams
2. Red Flags and Parades
3. Remember It Was Me
4. Shrapnel
5. Lord High Executioner
6. One Shoe
7. Chivalry
8. This Young Woman Fought Like Hell
Якість: 720p
Відео:
кодек:
розмір кадру: 1280 х 720
бітрейт: ~ 2 200 кб/с

Аудіо # 1:
мова: українська
переклад: багатоголосий закадровий
кодек: 5.1
бітрейт: 384 кб/с

Аудіо # 2:
мова: англійська
переклад: оригінал
кодек: E- 5.1
бітрейт: 640 кб/с

Джерело озвучення:
DniproFilm

Субтитри:
мова: англійська [SDH]
тип: програмні (м'які)
формат: *.srt
Info
General
Unique ID : 17941041791457179040710272189429676744 (0xD7F51A77DD104B311DFD0F35B4B7AC8)
Complete name : Dirty John S01E01 (2018) 720p [Ukr.Eng, sub ENG] [Hurtom].
Format :
Format version : Version 4
File size : 1.13 GiB
Duration : 49 min 52 s
Overall bit rate : 3 230 kb/s
Movie name : Брудний Джон (Сезон 1, серія 1) (2018)
Encoded date : UTC 2019-02-19 00:29:33
Writing application : v30.1.0 ('Forever And More') 32-bit
Writing library : libebml v1.3.6 + v1.4.9
Cover : Yes
Attachments : cover.jpg

Video
ID : 1
Format : AVC
Format/Info : Advanced Video Codec
Format profile : [email protected]
Format settings : CABAC / 5 Ref Frames
Format settings, CABAC : Yes
Format settings, ReFrames : 5 frames
Codec ID : V_MPEG4/ISO/AVC
Duration : 49 min 52 s
Bit rate : 2 203 kb/s
Width : 1 280 pixels
Height : 720 pixels
Display aspect ratio : 16:9
Frame rate mode : Constant
Frame rate : 23.976 (24000/1001) FPS
Color space : YUV
Chroma subsampling : 4:2:0
Bit depth : 8 bits
Scan type : Progressive
Bits/(Pixel*Frame) : 0.100
Stream size : 786 MiB (68%)
Language : English
Default : Yes
Forced : No
Color range : Limited
Color primaries : BT.709
Transfer characteristics : BT.709
Matrix coefficients : BT.709

Audio #1
ID : 2
Format : AC-3
Format/Info : Audio Coding 3
Commercial name : Dolby Digital
Codec ID : A_AC3
Duration : 49 min 52 s
Bit rate mode : Constant
Bit rate : 384 kb/s
Channel(s) : 6 channels
Channel layout : L R C LFE Ls Rs
Sampling rate : 48.0 kHz
Frame rate : 31.250 FPS (1536 SPF)
Bit depth : 16 bits
Compression mode : Lossy
Stream size : 137 MiB (12%)
Language : Ukrainian
Service kind : Complete Main
Default : Yes
Forced : Yes

Audio #2
ID : 3
Format : E-AC-3
Format/Info : Enhanced AC-3
Commercial name : Dolby Digital Plus
Codec ID : A_EAC3
Duration : 49 min 52 s
Bit rate mode : Constant
Bit rate : 640 kb/s
Channel(s) : 6 channels
Channel layout : L R C LFE Ls Rs
Sampling rate : 48.0 kHz
Frame rate : 31.250 FPS (1536 SPF)
Compression mode : Lossy
Stream size : 228 MiB (20%)
Title : English
Language : English
Service kind : Complete Main
Default : No
Forced : No

Text
ID : 4
Format : UTF-8
Codec ID : S_TEXT/UTF8
Codec ID/Info : UTF-8 Plain Text
Duration : 49 min 7 s
Bit rate : 91 b/s
Count of elements : 1106
Stream size : 32.9 KiB (0%)
Title : English [SDH]
Language : English
Default : No
Forced : No
Скріншоти
Джерело:


Авторський реліз (завантажувати можна без реєстрації)
 Трекер:    Зареєстрований   

Завантажити / скачати серіал українською



відео для новачків



 Зареєстрований:   2019-03-16 18:17
 Розмір:   8.03 GB 
 Оцінка серіалу:   6.8/10 (Голосів: 5)
   
Siegfried 
VIP


З нами з: 01.11.11
Востаннє: 12.06.19
Повідомлень: 265

2019-04-19 23:05  
Витер в кінці другої серії.
Харизми Еріка Бани виявилося недостатньо.
Нудна жуйка.

3/10

Ваш часовий пояс: GMT + 2 Години

Нова тема   Відповісти