Нові останні історії / Zoku Owarimonogatari [01-05 з 06] [2018] 1080p Ukr/Jap

Нові коментарі

Нова тема   Відповісти
Автор Повідомлення
Arch Enemy 
VIP


З нами з: 30.08.12
Востаннє: 22.05.19
Повідомлень: 1654

2019-03-16 17:10  
Нові останні історії / Zoku Owarimonogatari [01-05 з 06] [2018] 1080p Ukr/Jap

Альтернативний постер
Вікове обмеження: 16+



Країна: Японія
Прем'єра: з 01.11.2018 по ...
Жанр: комедія, містика
Аніместудія: Shaft
Тривалість: 6 епізоди, ~24хв./1еп.

Автор оригінала: Нішіо Ішін
Режисер: Шімбо Акіюкі
Сейю: Камія Хіроші, Сайто Чіва, Ханазава Кана, Като Емірі, Кітамура Ері, Хаямі Саорі, Мізухаші Каорі, Савашіро Міюкі, Хоріе Юі, Сакамото Маая та інші.

Сюжет:
Прокинувшись на наступний день після випускного, Арараґі Койомі усвідомив, що наче став ніким. Його шкільна глава життя вже закінчена, а студентська ще не почалася. Його життя стало навдивовижу невизначеним. Але незмінним залишилися дивацтва. Дивацтва, які цього разу без перебільшень змінять життя Койомі і всіх, кого він знає, з точністю до навпаки.Ласкаво просимо до світу парадоксів!


якість:
контейнер:
кодек:
частота кадрів: 23.976 кадрів/сек.
розмір кадру: 1920х1080 пікс.
бітрейт: ~7800 кбіт/сек.
бітність: 8 біт.

Аудіо # 1:
мова: українська, двоголосе закадрове озвучення.
кодек:
кількість каналів: 2.0
бітрейт: 725 кбіт/сек.
частота: 48000 Гц

Аудіо # 2:
мова: японська, оригінал
кодек:
кількість каналів: 2.0
бітрейт: 1399 кбіт/сек.
частота: 48000 Гц

Субтитри # 1:
мова: українська, написи та пояснення (увімкнені за замовчуванням)
формат:
тип: м'які, внутрішні

Субтитри # 2:
мова: українська, повні
формат:
тип: м'які, внутрішні

Джерело перекладу та озвучення: AniUA та G&M

текст читали: Gwean та Maslinka
переклад: MadGuy
робота зі звуком: Gwean
Скріншоти

MI
General
Unique ID : 181242565538047032202194878059331353213 (0x885A0C6509EC020B91AFF67144DE7A7D)
Complete name : E:\Anime\Zoku Owarimonogatari [1080p]\ZokuOwarimonogatari_[1]_(BDRip_x264_1080_FLAC)_[AniUA+Gwean_&_Maslinka].
Format :
Format version : Version 4 / Version 2
File size : 1.73 GiB
Duration : 24 min 39 s
Overall bit rate mode : Variable
Overall bit rate : 10.0 Mb/s
Encoded date : UTC 2019-03-16 10:41:38
Writing application : v7.0.0 ('Where We Going') 32bit built on Jun 9 2014 15:08:34
Writing library : libebml v1.3.0 + v1.4.1
Cover : Yes
Attachments : calibri.ttf / cambriab.ttf / Hortensia.ttf / KozMinPr6N-Heavy.otf / LetteraTrentadue_Ukr.ttf / meiryo.ttc / times.ttf / timesbd.ttf / cover.jpg

Video
ID : 1
Format : AVC
Format/Info : Advanced Video Codec
Format profile : [email protected]
Format settings : CABAC / 4 Ref Frames
Format settings, CABAC : Yes
Format settings, ReFrames : 4 frames
Codec ID : V_MPEG4/ISO/AVC
Duration : 24 min 38 s
Bit rate : 7 797 kb/s
Width : 1 920 pixels
Height : 1 080 pixels
Display aspect ratio : 16:9
Frame rate mode : Constant
Frame rate : 23.976 (24000/1001) FPS
Color space : YUV
Chroma subsampling : 4:2:0
Bit depth : 8 bits
Scan type : Progressive
Bits/(Pixel*Frame) : 0.157
Stream size : 1.34 GiB (78%)
Title : 1
Writing library : core 157
Encoding settings : opencl=1 / cabac=1 / ref=4 / deblock=1:-2:-2 / analyse=0x3:0x113 / me=umh / subme=9 / psy=1 / psy_rd=0.70:0.00 / mixed_ref=0 / me_range=32 / chroma_me=1 / trellis=2 / 8x8dct=1 / cqm=0 / deadzone=21,11 / fast_pskip=1 / chroma_qp_offset=-2 / threads=8 / lookahead_threads=1 / sliced_threads=0 / nr=0 / decimate=1 / interlaced=0 / bluray_compat=0 / constrained_intra=0 / bframes=9 / b_pyramid=2 / b_adapt=2 / b_bias=0 / direct=3 / weightb=1 / open_gop=0 / weightp=2 / keyint=250 / keyint_min=23 / scenecut=40 / intra_refresh=0 / rc_lookahead=40 / rc=crf / mbtree=1 / crf=16.0 / qcomp=0.70 / qpmin=10 / qpmax=20 / qpstep=4 / ip_ratio=1.40 / aq=1:1.00
Language : Japanese
Default : Yes
Forced : Yes

Audio #1
ID : 2
Format :
Format/Info : Free Lossless Audio Codec
Codec ID : A_FLAC
Duration : 24 min 39 s
Bit rate mode : Variable
Bit rate : 725 kb/s
Channel(s) : 2 channels
Channel layout : L R
Sampling rate : 48.0 kHz
Frame rate : 11.719 FPS (4096 SPF)
Bit depth : 16 bits
Compression mode : Lossless
Stream size : 128 MiB (7%)
Title : DVO від Gwean & Maslinka
Writing library : libFLAC 20170101 (UTC 2017-01-01)
Language : Ukrainian
Default : Yes
Forced : Yes

Audio #2
ID : 3
Format :
Format/Info : Free Lossless Audio Codec
Codec ID : A_FLAC
Duration : 24 min 38 s
Bit rate mode : Variable
Bit rate : 1 399 kb/s
Channel(s) : 2 channels
Channel layout : L R
Sampling rate : 48.0 kHz
Frame rate : 10.417 FPS (4608 SPF)
Bit depth : 24 bits
Compression mode : Lossless
Stream size : 247 MiB (14%)
Title : оригінальна доріжка
Writing library : Lavf57.83.100
Language : Japanese
Default : No
Forced : No

Text #1
ID : 4
Format :
Codec ID : S_TEXT/
Codec ID/Info : Advanced Sub Station Alpha
Duration : 22 min 2 s
Bit rate : 14 b/s
Count of elements : 27
Compression mode : Lossless
Stream size : 2.31 KiB (0%)
Title : написи від MadGuy [AniUA.com]
Language : Ukrainian
Default : Yes
Forced : Yes

Text #2
ID : 5
Format :
Codec ID : S_TEXT/
Codec ID/Info : Advanced Sub Station Alpha
Duration : 23 min 1 s
Bit rate : 185 b/s
Count of elements : 344
Compression mode : Lossless
Stream size : 31.3 KiB (0%)
Title : повні від MadGuy [AniUA.com]
Language : Ukrainian
Default : No
Forced : No
Якщо вам подобаються наші релізи, і є бажання чимось допомогти проекту, то будемо раді, якщо ви підтримаєте нас фінансово. І, якщо хочете подякувати за якесь конкретне аніме, або форсувати процес озвучення, прохання вказати у коментарі до переказу.
Підтримати/подякувати «AniUA»
Підтримати/подякувати «Gwean & Maslinka»
Також у нас можна замовити переклад або озвучення



Авторський реліз (завантажувати можна без реєстрації)
 Трекер:    Зареєстрований   

Завантажити / скачати аніме українською



відео для новачків



 Зареєстрований:   2019-05-02 13:06
 Розмір:   8.29 GB 
 Оцінка аніме:   10/10 (Голосів: 11)
   
Arch Enemy 
VIP


З нами з: 30.08.12
Востаннє: 22.05.19
Повідомлень: 1654

2019-03-25 00:00  
Додано 2 серію

Nazaрій 
Свій


З нами з: 25.05.11
Востаннє: 22.05.19
Повідомлень: 102

2019-03-25 15:00  
ви що хворі с таким розміром і всього 24 хв серія
Gwean 
Відео Гуртом - фільмокрай
Відео Гуртом - фільмокрай


З нами з: 28.07.12
Востаннє: 22.05.19
Повідомлень: 535

2019-03-30 11:57  
Nazaрій

Ми надаємо максимальну якість відео та аудіо. Будь-хто може перезібрати, якщо треба.

Arch Enemy 
VIP


З нами з: 30.08.12
Востаннє: 22.05.19
Повідомлень: 1654

2019-04-02 22:36  
Додано 3 серію

Arch Enemy 
VIP


З нами з: 30.08.12
Востаннє: 22.05.19
Повідомлень: 1654

2019-04-13 22:32  
Додано 4 серію

Arch Enemy 
VIP


З нами з: 30.08.12
Востаннє: 22.05.19
Повідомлень: 1654

2019-05-02 13:08  
Додано 5 серію

Косячок справжній 
VIP


З нами з: 29.02.12
Востаннє: 22.05.19
Повідомлень: 1129

2019-05-15 11:56  
Ну таке, як і решта Історій.
Ваш часовий пояс: GMT + 2 Години

Нова тема   Відповісти