Марія — королева Шотландії / Mary Queen of Scots (2018) UHD Remux 4K 2160p HDR H.265 Ukr/Eng | Sub Ukr/Eng

Нові коментарі

Нова тема   Відповісти
Автор Повідомлення
antik_2008 
Релізер і модератор відео


З нами з: 20.10.08
Востаннє: 20.04.19
Повідомлень: 1949

2019-03-16 13:15  
Марія — королева Шотландії / Mary Queen of Scots (2018) UHD Remux 4K 2160p HDR H.265 Ukr/Eng | Sub Ukr/Eng

Марія — королева Шотландії / Mary Queen of Scots (2018) UHD Remux 4K 2160p HDR H.265 Ukr/Eng | Sub Ukr/Eng


Жанр: біографічний, драма, історичний
Країна: Велика Британія





Кінокомпанія: Universal Pictures, Focus Features, Working Title Films
Режисер: Джозі Рурк
Актори: Сірша Ронан, Марґо Роббі, Девід Теннант, Джек Лауден, Мартін Компстон, Джо Елвін, Ґай Пірс, Брендан Койл, Джемма Чан, Саймон Расселл Біл

Сюжет:
Королева Франції в шістнадцять років і вдова у вісімнадцять. Її змушували знову вийти заміж, адже жінка одна нічого не зможе досягти в XVI столітті. Але Марія Стюарт вирішила вчинити зовсім інакше – вона повернулася до рідної Шотландії, щоб забрати собі трон. У той же час в Англії помер король, а престол дістався Єлизаветі І. Жінка зараз володіє всією Англією та Шотландією, і не збирається віддавати владу двоюрідній сестрі. Як дві жінки мали таку владу у країні, де всюди було верховенство чоловіків – велика загадка. Їх боротьба за трон увійшла в історію, тому що одна з них заради цієї влади віддала навіть свою голову.


Тривалість: 02:03:55
Якість: 4K UltraHD Remux 2160p

Відео:
кодек: H.265 (HEVC)
розмір кадру: 3840x2160
бітрейт: 73,3 Мб/с
бітова глибина: 10 біт
кольоровий простір: BT.2020 (HDR)

Аудіо # 1:
мова: українська
переклад: професійний дубльований
кодек: 2.0
бітрейт: 192 кб/с

Аудіо # 2:
мова: англійська
переклад: оригінал
кодек: 5.1
бітрейт: 448 кб/с

Аудіо # 3:
мова: англійська
переклад: оригінал
кодек: TrueHD 7.1
бітрейт: 3882 кб/с

Субтитри (forced, full) :
мова: українська
тип: програмні (м'які)
формат: *.srt

Субтитри (full, SDH) :
мова: англійська
тип: програмні (м'які)
формат: *.srt
Info
General
Complete name : Mary Queen of Scots (2018) Remux 4K 2160p HDR H.265 [UKR_ENG] [ViDeO_Hurtom].
Format :
Format version : Version 4
File size : 67.4 GiB
Duration : 2 h 5 min
Overall bit rate mode : Variable
Overall bit rate : 77.2 Mb/s
Movie name : Mary Queen of Scots (2018) Remux 4K 2160p HDR H.265 [UKR_ENG] [ViDeO_Hurtom]
Encoded date : UTC 2019-03-16 08:56:29
Writing application : v30.1.0 ('Forever And More') 64-bit
Writing library : libebml v1.3.6 + v1.4.9

Video
ID : 1
Format : HEVC
Format/Info : High Efficiency Video Coding
Commercial name : HDR10
Format profile : Main [email protected]@High
Codec ID : V_MPEGH/ISO/HEVC
Duration : 2 h 3 min
Bit rate : 73.3 Mb/s
Width : 3 840 pixels
Height : 2 160 pixels
Display aspect ratio : 16:9
Frame rate mode : Constant
Frame rate : 23.976 (24000/1001) FPS
Color space : YUV
Chroma subsampling : 4:2:0 (Type 2)
Bit depth : 10 bits
Bits/(Pixel*Frame) : 0.369
Stream size : 63.4 GiB (94%)
Language : English
Default : Yes
Forced : No
Color range : Limited
Color primaries : BT.2020
Transfer characteristics : PQ
Matrix coefficients : BT.2020 non-constant
Mastering display color primaries : Display P3
Mastering display luminance : min: 0.0001 cd/m2, max: 1000 cd/m2
Maximum Content Light Level : 1000 cd/m2
Maximum Frame-Average Light Level : 114 cd/m2

Audio #1
ID : 2
Format : AC-3
Format/Info : Audio Coding 3
Commercial name : Dolby Digital
Codec ID : A_AC3
Duration : 2 h 5 min
Bit rate mode : Constant
Bit rate : 192 kb/s
Channel(s) : 2 channels
Channel layout : L R
Sampling rate : 48.0 kHz
Frame rate : 31.250 FPS (1536 SPF)
Bit depth : 16 bits
Compression mode : Lossy
Stream size : 172 MiB (0%)
Title : , 2 ch, 192 Кбт/с
Language : Ukrainian
Service kind : Complete Main
Default : Yes
Forced : No

Audio #2
ID : 3
Format : AC-3
Format/Info : Audio Coding 3
Commercial name : Dolby Digital
Codec ID : A_AC3
Duration : 2 h 3 min
Bit rate mode : Constant
Bit rate : 448 kb/s
Channel(s) : 6 channels
Channel layout : L R C LFE Ls Rs
Sampling rate : 48.0 kHz
Frame rate : 31.250 FPS (1536 SPF)
Bit depth : 16 bits
Compression mode : Lossy
Stream size : 397 MiB (1%)
Title : , 6 ch, 448 Кбт/с
Language : English
Service kind : Complete Main
Default : No
Forced : No

Audio #3
ID : 4
Format : MLP FBA 16-ch
Format/Info : Meridian Lossless Packing FBA with 16-channel presentation
Commercial name : Dolby TrueHD with Dolby Atmos
Codec ID : A_TRUEHD
Duration : 2 h 3 min
Bit rate mode : Variable
Bit rate : 3 882 kb/s
Maximum bit rate : 6 444 kb/s
Channel(s) : 8 channels
Channel layout : L R C LFE Ls Rs Lb Rb
Sampling rate : 48.0 kHz
Frame rate : 1 200.000 FPS (40 SPF)
Compression mode : Lossless
Stream size : 3.36 GiB (5%)
Title : TrueHD, 8 ch, 3882 Кбт/с
Language : English
Default : No
Forced : No
Number of dynamic objects : 11
Bed channel count : 1 channel
Bed channel configuration : LFE

Text #1
ID : 5
Format : UTF-8
Codec ID : S_TEXT/UTF8
Codec ID/Info : UTF-8 Plain Text
Duration : 1 h 56 min
Bit rate : 2 b/s
Count of elements : 22
Stream size : 1.78 KiB (0%)
Title : Forced
Language : Ukrainian
Default : Yes
Forced : No

Text #2
ID : 6
Format : UTF-8
Codec ID : S_TEXT/UTF8
Codec ID/Info : UTF-8 Plain Text
Duration : 1 h 56 min
Bit rate : 74 b/s
Count of elements : 1161
Stream size : 63.1 KiB (0%)
Title : Full
Language : Ukrainian
Default : No
Forced : No

Text #3
ID : 7
Format : UTF-8
Codec ID : S_TEXT/UTF8
Codec ID/Info : UTF-8 Plain Text
Duration : 1 h 53 min
Bit rate : 42 b/s
Count of elements : 1127
Stream size : 35.0 KiB (0%)
Title : Full
Language : English
Default : No
Forced : No

Text #4
ID : 8
Format : UTF-8
Codec ID : S_TEXT/UTF8
Codec ID/Info : UTF-8 Plain Text
Duration : 1 h 54 min
Bit rate : 46 b/s
Count of elements : 1369
Stream size : 39.1 KiB (0%)
Title : SDH
Language : English
Default : No
Forced : No
Скріншоти

Подяка за аудіо і субтитри kryk-v.ya.

Джерело: &
Особиста оцінка: 0 - не дивився
Увага! Перед завантаженням переконайтесь, що ваш пристрій відтворення (та/або ПЗ) підтримує H.265 (HEVC)


Золотий реліз (завантажене не впливає на рейтинг)
 Трекер:    Зареєстрований   

Завантажити / скачати фільм українською



відео для новачків



 Зареєстрований:   2019-03-16 13:15
 Розмір:   67.41 GB 
 Оцінка фільму:   9.3/10 (Голосів: 7)
   
Ваш часовий пояс: GMT + 2 Години

Нова тема   Відповісти