Марія — королева Шотландії / Mary Queen of Scots (2018) 1080p Ukr/Eng | Sub Ukr/Eng

Нові коментарі

Нова тема   Відповісти
Автор Повідомлення
Anonymous 







2019-03-15 22:07  
Марія — королева Шотландії / Mary Queen of Scots (2018) 1080p Ukr/Eng | Sub Ukr/Eng

Марія — королева Шотландії / Mary Queen of Scots (2018) 1080p Ukr/Eng | Sub Ukr/Eng


Жанр: біографічний, драма, історичний
Країна: Великобританія





Кінокомпанія: Universal Pictures, Focus Features, Working Title Films
Режисер: Джозі Рурк
Актори: Сірша Ронан, Марґо Роббі, Девід Теннант, Джек Лауден, Мартін Компстон, Джо Елвін, Ґай Пірс, Брендан Койл, Джемма Чан, Саймон Расселл Біл

Сюжет:
Королева Франції в шістнадцять років і вдова у вісімнадцять. Її змушували знову вийти заміж, адже жінка одна нічого не зможе досягти в XVI столітті. Але Марія Стюарт вирішила вчинити зовсім інакше – вона повернулася до рідної Шотландії, щоб забрати собі трон. У той же час в Англії помер король, а престол дістався Єлизаветі І. Жінка зараз володіє всією Англією та Шотландією, і не збирається віддавати владу двоюрідній сестрі. Як дві жінки мали таку владу у країні, де всюди було верховенство чоловіків – велика загадка. Їх боротьба за трон увійшла в історію, тому що одна з них заради цієї влади віддала навіть свою голову.


Тривалість: 02:03:55
Якість: 1080p
Відео:
кодек:
розмір кадру: 1920x804
бітрейт: 7925 кб/с

Аудіо # 1:
мова: українська
переклад: професійний дубльований
кодек: 2.0
бітрейт: 192 кб/с

Аудіо # 2:
мова: англійська
переклад: оригінал
кодек: 5.1
бітрейт: 448 кб/с

Субтитри (forced, full) :
мова: українська
тип: програмні (м'які)
формат: *.srt

Субтитри (full, SDH) :
мова: англійська
тип: програмні (м'які)
формат: *.srt
Info
General
Complete name : Mary Queen of Scots (2018) 1080p [UKR.ENG] [Video_Hurtom].
Format :
Format version : Version 4
File size : 7.42 GiB
Duration : 2 h 5 min
Overall bit rate : 8 491 kb/s
Movie name : Mary Queen of Scots (2018) 1080p [UKR.ENG] [Video_Hurtom]
Encoded date : UTC 2019-03-15 19:51:37
Writing application : v30.1.0 ('Forever And More') 64-bit
Writing library : libebml v1.3.6 + v1.4.9

Video
ID : 1
Format : AVC
Format/Info : Advanced Video Codec
Format profile : [email protected]
Format settings : CABAC / 5 Ref Frames
Format settings, CABAC : Yes
Format settings, RefFrames : 5 frames
Codec ID : V_MPEG4/ISO/AVC
Duration : 2 h 3 min
Bit rate : 7 925 kb/s
Width : 1 920 pixels
Height : 804 pixels
Display aspect ratio : 2.40:1
Frame rate mode : Constant
Frame rate : 23.976 (24000/1001) FPS
Color space : YUV
Chroma subsampling : 4:2:0
Bit depth : 8 bits
Scan type : Progressive
Bits/(Pixel*Frame) : 0.214
Stream size : 6.86 GiB (92%)
Writing library : core 157 r2935 545de2f
Encoding settings : cabac=1 / ref=5 / deblock=1:-1:-1 / analyse=0x3:0x113 / me=umh / subme=11 / psy=1 / psy_rd=1.00:0.00 / mixed_ref=1 / me_range=48 / chroma_me=1 / trellis=2 / 8x8dct=1 / cqm=0 / deadzone=21,11 / fast_pskip=0 / chroma_qp_offset=-2 / threads=9 / lookahead_threads=2 / sliced_threads=0 / nr=0 / decimate=0 / interlaced=0 / bluray_compat=0 / constrained_intra=0 / bframes=16 / b_pyramid=2 / b_adapt=2 / b_bias=0 / direct=3 / weightb=1 / open_gop=0 / weightp=2 / keyint=240 / keyint_min=24 / scenecut=40 / intra_refresh=0 / rc_lookahead=120 / rc=2pass / mbtree=0 / bitrate=7925 / ratetol=1.0 / qcomp=0.70 / qpmin=0 / qpmax=69 / qpstep=4 / cplxblur=20.0 / qblur=0.5 / vbv_maxrate=50000 / vbv_bufsize=62500 / nal_hrd=none / filler=0 / ip_ratio=1.40 / pb_ratio=1.30 / aq=3:0.80
Language : English
Default : Yes
Forced : No

Audio #1
ID : 2
Format : AC-3
Format/Info : Audio Coding 3
Commercial name : Dolby Digital
Codec ID : A_AC3
Duration : 2 h 5 min
Bit rate mode : Constant
Bit rate : 192 kb/s
Channel(s) : 2 channels
Channel layout : L R
Sampling rate : 48.0 kHz
Frame rate : 31.250 FPS (1536 SPF)
Bit depth : 16 bits
Compression mode : Lossy
Stream size : 172 MiB (2%)
Title : 2.0 @ 192 kbps
Language : Ukrainian
Service kind : Complete Main
Default : Yes
Forced : No

Audio #2
ID : 3
Format : AC-3
Format/Info : Audio Coding 3
Commercial name : Dolby Digital
Codec ID : A_AC3
Duration : 2 h 3 min
Bit rate mode : Constant
Bit rate : 448 kb/s
Channel(s) : 6 channels
Channel layout : L R C LFE Ls Rs
Sampling rate : 48.0 kHz
Frame rate : 31.250 FPS (1536 SPF)
Bit depth : 16 bits
Compression mode : Lossy
Stream size : 397 MiB (5%)
Title : 5.1 @ 448 kbps
Language : English
Service kind : Complete Main
Default : No
Forced : No

Text #1
ID : 4
Format : UTF-8
Codec ID : S_TEXT/UTF8
Codec ID/Info : UTF-8 Plain Text
Duration : 1 h 56 min
Bit rate : 2 b/s
Count of elements : 22
Stream size : 1.78 KiB (0%)
Title : Forced
Language : Ukrainian
Default : Yes
Forced : No

Text #2
ID : 5
Format : UTF-8
Codec ID : S_TEXT/UTF8
Codec ID/Info : UTF-8 Plain Text
Duration : 1 h 56 min
Bit rate : 74 b/s
Count of elements : 1161
Stream size : 63.1 KiB (0%)
Title : Full
Language : Ukrainian
Default : No
Forced : No

Text #3
ID : 6
Format : UTF-8
Codec ID : S_TEXT/UTF8
Codec ID/Info : UTF-8 Plain Text
Duration : 1 h 53 min
Bit rate : 42 b/s
Count of elements : 1127
Stream size : 35.0 KiB (0%)
Title : Full
Language : English
Default : No
Forced : No

Text #4
ID : 7
Format : UTF-8
Codec ID : S_TEXT/UTF8
Codec ID/Info : UTF-8 Plain Text
Duration : 1 h 54 min
Bit rate : 46 b/s
Count of elements : 1369
Stream size : 39.1 KiB (0%)
Title : SDH
Language : English
Default : No
Forced : No
Скріншоти











Підтримати купівлю інших фільмів можна тут


Подяка за аудіо і субтитри kryk-v.ya.

Джерело:
Особиста оцінка: 7 - моїй подрузі не сподобалося


 Трекер:    Зареєстрований   

Завантажити / скачати фільм українською



відео для новачків



 Зареєстрований:   2019-03-15 22:07
 Розмір:   7.42 GB 
 Оцінка фільму:   8.7/10 (Голосів: 11)
   
0mage0 
VIP


З нами з: 06.10.15
Востаннє: 20.11.19
Повідомлень: 563

2019-04-05 16:49  
Це не Мері королева Шотландії, це ходяче нещастячко.
Розвела навколо себе зраду і поплатилася власною головою.

Ваш часовий пояс: GMT + 2 Години

Нова тема   Відповісти