Невідомий солдат / Tuntematon sotilas (2017) 1080p Ukr/Fin | Sub Ukr

Нові коментарі

Нова тема   Відповісти
Автор Повідомлення
AdrianZP 
Поважний учасник


З нами з: 28.08.14
Востаннє: 26.04.19
Повідомлень: 189

2019-03-15 20:01  
Невідомий солдат / Tuntematon sotilas (2017) 1080p Ukr/Fin | Sub Ukr


Невідомий солдат / Tuntematon sotilas (2017) 1080p Ukr/Fin | Sub Ukr

Проект підготовлено за підтримки fishMD


Жанр: військова драма
Країна: Фінляндія, Бельгія, Ісландія



Кінокомпанія: Elokuvaosakeyhtiö Suomi 2017, Kvikmyndafélag Íslands (co-production), Scope Pictures (co-production)
Режисер: Аку Лоухімієс (Aku Louhimies)
Актори: Ееро Ахо (Eero Aho), Йоганнес Холопайнен (Johannes Holopainen), Юссі Ватанен (Jussi Vatanen), Аку Хірвініємі (Aku Hirviniemi), Ганнес Суомінен (Hannes Suominen) та інші

Сюжет:
Сюжет описує події так званої «Війни-продовження» радянсько-фінської війни 1939-1940 років, більш відомої як Друга світова війна. З початком вторгнення німецьких військ на територію СРСР, фінський уряд деякий час вагався з оголошенням війни Москві. 25 червня мала відбутися сесія фінського парламенту, на якій, прем'єр-міністр Рангель мав зробити заяву про нейтралітет Фінляндії у німецько-радянському конфлікті, але ранком того ж дня, червоноармійське командування вирішило завдати масштабний превентивний авіаудар по 18 аеродромах Фінляндії. Це бомбардування змусили його оголосити війну СРСР…

Фільм є третьою версією екранізації однойменного роману фінського письменника Вяйне Лінна, однак, сценарист картини Ярі-Олаві Рантала стверджує, що їх фільм не має ніякого відношення до двох попередніх екранізацій.


Тривалість: 03:00:05
Якість:
Відео:
кодек:
розмір кадру: 1920 х 804
бітрейт: 7500 кб/с

Аудіо:
мова: українська
переклад: багатоголосий закадровий
кодек: 5.1
бітрейт: 448 кб/с

Аудіо # 2:
мова: фінська
переклад: оригінал
кодек: 5.1
бітрейт: 448 кб/с

Субтитри:
мова: українська
тип: програмні (м'які)
формат: *.srt
(Відредаговані субтитри від TroSer)
Info
Format :
Format version : Version 4 / Version 2
File size : 10.6 GiB
Duration : 3 h 0 min
Overall bit rate : 8 394 kb/s
Encoded date : UTC 2019-03-16 13:29:19
Writing application : v9.4.0 ('Knurl') 64bit
Writing library : libebml v1.3.4 + v1.4.5
Cover : Yes
Attachments : cover.jpg

Video
ID : 1
Format : AVC
Format/Info : Advanced Video Codec
Format profile : [email protected]
Format settings : CABAC / 5 Ref Frames
Format settings, CABAC : Yes
Format settings, ReFrames : 5 frames
Codec ID : V_MPEG4/ISO/AVC
Duration : 3 h 0 min
Bit rate : 7 500 kb/s
Width : 1 920 pixels
Height : 804 pixels
Display aspect ratio : 2.40:1
Frame rate mode : Constant
Frame rate : 24.000 FPS
Color space : YUV
Chroma subsampling : 4:2:0
Bit depth : 8 bits
Scan type : Progressive
Bits/(Pixel*Frame) : 0.202
Stream size : 9.43 GiB (89%)
Writing library : core 148 r2708 86b7198
Encoding settings : cabac=1 / ref=5 / deblock=1:0:0 / analyse=0x3:0x113 / me=umh / subme=8 / psy=1 / psy_rd=1.00:0.00 / mixed_ref=1 / me_range=16 / chroma_me=1 / trellis=1 / 8x8dct=1 / cqm=0 / deadzone=21,11 / fast_pskip=1 / chroma_qp_offset=-2 / threads=18 / lookahead_threads=3 / sliced_threads=0 / nr=0 / decimate=1 / interlaced=0 / bluray_compat=0 / constrained_intra=0 / bframes=3 / b_pyramid=2 / b_adapt=2 / b_bias=0 / direct=3 / weightb=1 / open_gop=0 / weightp=2 / keyint=240 / keyint_min=24 / scenecut=40 / intra_refresh=0 / rc_lookahead=50 / rc=2pass / mbtree=1 / bitrate=7500 / ratetol=1.0 / qcomp=0.60 / qpmin=0 / qpmax=69 / qpstep=4 / cplxblur=20.0 / qblur=0.5 / vbv_maxrate=25000 / vbv_bufsize=31250 / nal_hrd=none / filler=0 / ip_ratio=1.40 / aq=1:1.00
Language : Finnish
Default : Yes
Forced : No
Color range : Limited
Color primaries : BT.709
Transfer characteristics : BT.709
Matrix coefficients : BT.709

Audio #1
ID : 2
Format : AC-3
Format/Info : Audio Coding 3
Commercial name : Dolby Digital
Codec ID : A_AC3
Duration : 3 h 0 min
Bit rate mode : Constant
Bit rate : 448 kb/s
Channel(s) : 6 channels
Channel layout : L R C LFE Ls Rs
Sampling rate : 48.0 kHz
Frame rate : 31.250 FPS (1536 SPF)
Bit depth : 16 bits
Compression mode : Lossy
Stream size : 577 MiB (5%)
Title : Озвучка AdrianZP
Language : Ukrainian
Service kind : Complete Main
Default : Yes
Forced : No

Audio #2
ID : 3
Format : AC-3
Format/Info : Audio Coding 3
Commercial name : Dolby Digital
Codec ID : A_AC3
Duration : 3 h 0 min
Bit rate mode : Constant
Bit rate : 448 kb/s
Channel(s) : 6 channels
Channel layout : L R C LFE Ls Rs
Sampling rate : 48.0 kHz
Frame rate : 31.250 FPS (1536 SPF)
Bit depth : 16 bits
Compression mode : Lossy
Stream size : 577 MiB (5%)
Language : Finnish
Service kind : Complete Main
Default : No
Forced : No

Text
ID : 4
Format : UTF-8
Codec ID : S_TEXT/UTF8
Codec ID/Info : UTF-8 Plain Text
Duration : 2 h 56 min
Bit rate : 57 b/s
Count of elements : 1135
Stream size : 75.0 KiB (0%)
Title : TroSer
Language : Ukrainian
Default : Yes
Forced : No
Скріншоти





Озвучення виконано: Спільно з:-- & &-- &--dzuski.com
Переклад: На основі субтитрів TroSer
Ролі озвучили: Сафін, Ptaxa, Max Ivanitsky, Lomaev, Trina_D та AdrianZP
Робота зі звуком: AdrianZP
Постер: AdrianZP

Особиста оцінка: 9 - цікаво було поглянути на інший погляд війни


Авторський реліз (завантажувати можна без реєстрації)
 Трекер:    Зареєстрований   

Завантажити / скачати фільм українською



відео для новачків



 Зареєстрований:   2019-03-16 16:47
 Розмір:   10.56 GB 
 Оцінка фільму:   9.9/10 (Голосів: 32)
   
AdrianZP 
Поважний учасник


З нами з: 28.08.14
Востаннє: 26.04.19
Повідомлень: 189

2019-03-15 20:19  
Не забувайте, найкраща подяка це допомога з роздачею! Дякуємо)

Форкуш 
VIP


З нами з: 03.02.10
Востаннє: 25.04.19
Повідомлень: 2397

2019-03-16 00:41  
авс буде?
AdrianZP 
Поважний учасник


З нами з: 28.08.14
Востаннє: 26.04.19
Повідомлень: 189

2019-03-16 00:54  
Форкуш
Навіть не знаю, що це, тому навряд)

igor911 
Відео Гуртом
Відео Гуртом


З нами з: 18.01.08
Востаннє: 26.04.19
Повідомлень: 12348

2019-03-16 08:18  
Треба додати оригінальну доріжку (і українські субтитри) та замінити відеоряд на якісніший.
Правила оформлення відео-релізу, Додаток до релізів в якості HD написано:
6. Оригінальна доріжка обов'язкова у всіх релізах HD, крім 720p-mini та багатосерійних.

AdrianZP написано:

Bits/(Pixel*Frame) : 0.121
rc=abr / bitrate=4500

Відеоряд у 1080p повинен мати співвідношення Bits/(Pixel*Frame) не менше, ніж 0.16 (тут 0.121) або CRF менше 21.

bot 
робот


З нами з: 30.09.07
Востаннє: 26.05.05
Повідомлень: 21245

2019-03-16 16:48  
Тему перенесено з Неоформлене відео до форуму Фільми в HD


igor911

AdrianZP 
Поважний учасник


З нами з: 28.08.14
Востаннє: 26.04.19
Повідомлень: 189

2019-03-16 17:01  
РЕЛІЗ ОНОВЛЕНО!
ПЕРЕЗАВАНТАЖТЕ БУДЬ ЛАСКА!


- Було замінено відео 1080p вищої якості.
- Окрім нашого українського озвучення було додано доріжку оригіналу та відредаговані (під час роботи над проектом) українські субтитри.

DaemonRus 
Новенький


З нами з: 22.02.13
Востаннє: 25.04.19
Повідомлень: 4

2019-03-16 20:43  
а як на рахунок H 265 ?
AdrianZP 
Поважний учасник


З нами з: 28.08.14
Востаннє: 26.04.19
Повідомлень: 189

2019-03-16 21:04  
DaemonRus
Якщо хтось захоче зробити, то нехай зробить)

snight 
Новенький


З нами з: 16.07.08
Востаннє: 23.03.19
Повідомлень: 2

2019-03-16 22:15  
як сам фільм?
igor911 
Відео Гуртом
Відео Гуртом


З нами з: 18.01.08
Востаннє: 26.04.19
Повідомлень: 12348

2019-03-16 22:18  
snight написано:
як сам фільм?

Відгуки написано:
- сильно. респект режисеру.
- Це дійсно гарне кіно
- Хороший сильний фільм!

Ваш часовий пояс: GMT + 2 Години

Нова тема   Відповісти