Дике серце / Untamed Heart (1993) 720p Ukr/Eng | Sub Eng

Нові коментарі

Нова тема   Відповісти
Автор Повідомлення
Anonymous 







2019-03-15 17:20  
Дике серце / Untamed Heart (1993) 720p Ukr/Eng | Sub Eng

Дике серце / Untamed Heart (1993) 720p Ukr/Eng | Sub Eng


Жанр: мелодрама
Країна: США



Кінокомпанія: Metro-Goldwyn-Mayer (MGM)
Режисер: Тоні Білл
Актори: Крістіан Слейтер, Маріса Томей, Розі Перес, Кайл Сікора, Уіллі Гарсон, Джеймс Кеда, Гері Грумз, Клодія Уілкенс, Пет Клемонс, Лотіс Кі

Сюжет:
Керолайн - офіціантка, якій ніяк не щастить у коханні. Адам - сором'язливий прибиральник, що працює поруч, приховує свою симпатію до неї і не наважується навіть затіяти розмову. Все змінюється один раз зимовим вечором, коли дівчина, повертаючись з роботи, піддається нападу двох злочинців, а Адам, завдяки щасливому випадку опинився поряд, рятує її.


Тривалість: 01:42:48
Якість: 720p
Відео:
кодек:
розмір кадру: 1280х696
бітрейт: 4 611 кб/с

Аудіо # 1:
мова: українська
переклад: багатоголосий закадровий
кодек: 2.0
бітрейт: 192 кб/с

Аудіо # 2:
мова: англійська
переклад: оригінал
кодек: 2.0
бітрейт: 1 509 кб/с

Субтитри:
мова: англійська
тип: програмні (м'які)
формат: *.srt
Info
General
Unique ID : 181517465413907710197984627663191981216 (0x888EFE01470531E39F560CD7C748BCA0)
Complete name : H:\Toloka\2019\Untamed Heart (1993) 720p.
Format :
Format version : Version 4
File size : 4.50 GiB
Duration : 1 h 42 min
Overall bit rate : 6 312 kb/s
Encoded date : UTC 2019-03-15 14:11:13
Writing application : v6.1.0 ('Old Devil') built on Mar 4 2013 09:10:42
Writing library : libebml v1.3.0 + v1.4.0

Video
ID : 1
Format : AVC
Format/Info : Advanced Video Codec
Format profile : [email protected]
Format settings : CABAC / 9 Ref Frames
Format settings, CABAC : Yes
Format settings, RefFrames : 9 frames
Codec ID : V_MPEG4/ISO/AVC
Duration : 1 h 42 min
Bit rate : 4 611 kb/s
Width : 1 280 pixels
Height : 696 pixels
Display aspect ratio : 1.85:1
Frame rate mode : Constant
Frame rate : 23.976 (24000/1001) FPS
Color space : YUV
Chroma subsampling : 4:2:0
Bit depth : 8 bits
Scan type : Progressive
Bits/(Pixel*Frame) : 0.216
Stream size : 3.20 GiB (71%)
Writing library : core 157 r2935 545de2f
Encoding settings : cabac=1 / ref=9 / deblock=1:-3:-3 / analyse=0x3:0x113 / me=umh / subme=8 / psy=1 / psy_rd=1.00:0.00 / mixed_ref=1 / me_range=16 / chroma_me=1 / trellis=2 / 8x8dct=1 / cqm=0 / deadzone=21,11 / fast_pskip=0 / chroma_qp_offset=-2 / threads=22 / lookahead_threads=3 / sliced_threads=0 / nr=0 / decimate=1 / interlaced=0 / bluray_compat=0 / constrained_intra=0 / bframes=3 / b_pyramid=2 / b_adapt=1 / b_bias=0 / direct=1 / weightb=1 / open_gop=0 / weightp=2 / keyint=250 / keyint_min=23 / scenecut=40 / intra_refresh=0 / rc_lookahead=40 / rc=2pass / mbtree=1 / bitrate=4611 / ratetol=1.0 / qcomp=0.60 / qpmin=0 / qpmax=69 / qpstep=4 / cplxblur=20.0 / qblur=0.5 / ip_ratio=1.40 / aq=1:1.00
Language : English
Default : Yes
Forced : No
Statistics Tags Issue : v21.0.0 ('Tardigrades Will Inherit The Earth') 64-bit 2019-03-12 21:14:23 / v6.1.0 ('Old Devil') built on Mar 4 2013 09:10:42 2019-03-15 14:11:13
FromStats_BitRate : 4607916
FromStats_Duration : 01:42:08.206000000
FromStats_FrameCount : 146930
FromStats_StreamSize : 3529782915

Audio #1
ID : 2
Format : AC-3
Format/Info : Audio Coding 3
Commercial name : Dolby Digital
Codec ID : A_AC3
Duration : 1 h 42 min
Bit rate mode : Constant
Bit rate : 192 kb/s
Channel(s) : 2 channels
Channel layout : L R
Sampling rate : 48.0 kHz
Frame rate : 31.250 FPS (1536 SPF)
Bit depth : 16 bits
Compression mode : Lossy
Stream size : 140 MiB (3%)
Title : UKR (AMC)
Language : Ukrainian
Service kind : Complete Main
Default : Yes
Forced : Yes

Audio #2
ID : 3
Format :
Format/Info : Digital Theater Systems
Codec ID : A_DTS
Duration : 1 h 42 min
Bit rate mode : Constant
Bit rate : 1 509 kb/s
Channel(s) : 2 channels
Channel layout : L R
Sampling rate : 48.0 kHz
Frame rate : 93.750 FPS (512 SPF)
Bit depth : 24 bits
Compression mode : Lossy
Stream size : 1.08 GiB (24%)
Title : ENG
Language : English
Default : No
Forced : No
Statistics Tags Issue : v21.0.0 ('Tardigrades Will Inherit The Earth') 64-bit 2019-03-12 21:14:23 / v6.1.0 ('Old Devil') built on Mar 4 2013 09:10:42 2019-03-15 14:11:13
FromStats_BitRate : 1509000
FromStats_Duration : 01:42:08.224000000
FromStats_FrameCount : 574521
FromStats_StreamSize : 1155936252

Text
ID : 4
Format : UTF-8
Codec ID : S_TEXT/UTF8
Codec ID/Info : UTF-8 Plain Text
Language : English
Default : No
Forced : No
Statistics Tags Issue : v21.0.0 ('Tardigrades Will Inherit The Earth') 64-bit 2019-03-12 21:14:23 / v6.1.0 ('Old Devil') built on Mar 4 2013 09:10:42 2019-03-15 14:11:13
FromStats_BitRate : 44
FromStats_Duration : 01:40:30.525000000
FromStats_FrameCount : 1229
FromStats_StreamSize : 33667

Menu
00:00:00.000 : en:00:00:00.000
00:10:27.919 : en:00:10:27.919
00:18:59.764 : en:00:18:59.764
00:28:32.586 : en:00:28:32.586
00:45:39.362 : en:00:45:39.362
01:01:08.415 : en:01:01:08.415
01:14:01.145 : en:01:14:01.145
01:27:10.892 : en:01:27:10.892
Скріншоти








За українську доріжку подяка п.: Sando7, Arsenfpu
Особиста подяка пану denixx за надану матеріальну допомогу на підтримку цього і майбутніх релізів.
Джерело:


Срібний реліз (на рейтинг впливає 50% завантаженого)
 Трекер:    Зареєстрований   

Завантажити / скачати фільм українською



відео для новачків



 Зареєстрований:   2019-03-15 17:20
 Розмір:   4.5 GB 
 Оцінка фільму:   10/10 (Голосів: 3)
   
Інші релізи
   Дике серце / Untamed Heart (1993) Ukr/Eng Arsenfpu  3 / 0   1.45 GB   2016-10-19 19:35 
leicheman 
Відео Гуртом - підтримка та поширення
Відео Гуртом - підтримка та поширення


З нами з: 03.07.14
Востаннє: 23.04.19
Повідомлень: 3559

2019-03-15 17:27  
воу, груди Маріси Томей. цііііікаво Happy
Ваш часовий пояс: GMT + 2 Години

Нова тема   Відповісти