Той, хто мене береже / Той, хто мене оберігає / Someone to Watch Over Me (1987) 720p 2xUkr/Eng | Sub Eng

Нові коментарі

Нова тема   Відповісти
Автор Повідомлення
Anonymous 







2019-03-15 17:08  
Той, хто мене береже / Той, хто мене оберігає / Someone to Watch Over Me (1987) 720p 2xUkr/Eng | Sub Eng

Той, хто мене береже / Той, хто мене оберігає / Someone to Watch Over Me (1987) 720p 2xUkr/Eng | Sub Eng


Жанр: екшн, кримінальний, драма, романтичний, трилер
Країна: США



Кінокомпанія: Columbia Pictures Corporation
Режисер: Рідлі Скотт / Ridley Scott
Актори: Том Беренджер / Tom Berenger, Мімі Роджерс / Mimi Rogers, Лоррейн Бракко / Lorraine Bracco, Джеррі Орбак / Jerry Orbach, Джон Рубінстайн / John Rubinstein, Андреас Кацулас / Andreas Katsulas, Тоні ДіБенедетто / Tony DiBenedetto, Джеймс Е. Моріарті / James E. Moriarty, Марк Мозес / Mark Moses, Деніел Г'ю Келлі / Daniel Hugh Kelly

Сюжет:
Поліцейський Майк Кіґан отримав завдання охороняти багату пані з вищого суспільства Клер Ґреґорі, яка стала свідком звірячого вбивства і тепер вбивця полює на неї.
Кіґан щасливо одружений, його тільки що підвищили до детектива, а тут на нього звалилася спокуслива і приваблива Клер - він повинен бути з нею вдень і вночі...


Тривалість: 01:46:28
Якість: 720p
Відео:
кодек:
розмір кадру: 1280х696
бітрейт: 7307 кб/с

Аудіо # 1:
мова: українська
переклад: багатоголосий закадровий
кодек: 2.0
бітрейт: 192 кб/с

Аудіо # 2:
мова: українська
переклад: багатоголосий закадровий
кодек: 2.0
бітрейт: 192 кб/с

Аудіо # 3:
мова: англійська
переклад: оригінал
кодек: 2.0
бітрейт: 1509 кб/с

Субтитри:
мова: англійська
тип: програмні (м'які)
формат: *.srt
Info
General
Unique ID : 252751363015726471601886117245718480864 (0xBE26245064114979B61070782C89C7E0)
Complete name : H:\Toloka\2019\Someone to Watch Over Me (1987) 720p.
Format :
Format version : Version 4
File size : 6.84 GiB
Duration : 1 h 46 min
Overall bit rate : 9 195 kb/s
Encoded date : UTC 2019-03-15 13:55:27
Writing application : v6.1.0 ('Old Devil') built on Mar 4 2013 09:10:42
Writing library : libebml v1.3.0 + v1.4.0

Video
ID : 1
Format : AVC
Format/Info : Advanced Video Codec
Format profile : [email protected]
Format settings : CABAC / 5 Ref Frames
Format settings, CABAC : Yes
Format settings, RefFrames : 5 frames
Codec ID : V_MPEG4/ISO/AVC
Duration : 1 h 46 min
Bit rate : 7 307 kb/s
Width : 1 280 pixels
Height : 696 pixels
Display aspect ratio : 1.85:1
Frame rate mode : Constant
Frame rate : 23.976 (24000/1001) FPS
Color space : YUV
Chroma subsampling : 4:2:0
Bit depth : 8 bits
Scan type : Progressive
Bits/(Pixel*Frame) : 0.342
Stream size : 5.30 GiB (77%)
Writing library : core 157 r2935 545de2f
Encoding settings : cabac=1 / ref=5 / deblock=1:-3:-3 / analyse=0x3:0x113 / me=umh / subme=8 / psy=1 / psy_rd=1.15:0.00 / mixed_ref=1 / me_range=24 / chroma_me=1 / trellis=2 / 8x8dct=1 / cqm=0 / deadzone=21,11 / fast_pskip=1 / chroma_qp_offset=-2 / threads=22 / lookahead_threads=3 / sliced_threads=0 / nr=0 / decimate=1 / interlaced=0 / bluray_compat=0 / constrained_intra=0 / bframes=3 / b_pyramid=2 / b_adapt=2 / b_bias=0 / direct=3 / weightb=1 / open_gop=0 / weightp=2 / keyint=240 / keyint_min=24 / scenecut=40 / intra_refresh=0 / rc_lookahead=50 / rc=2pass / mbtree=1 / bitrate=7307 / ratetol=1.0 / qcomp=0.60 / qpmin=0 / qpmax=69 / qpstep=4 / cplxblur=20.0 / qblur=0.5 / ip_ratio=1.40 / aq=3:0.70
Default : Yes
Forced : No
Statistics Tags Issue : no_variable_data 1970-01-01 00:00:00 / v6.1.0 ('Old Devil') built on Mar 4 2013 09:10:42 2019-03-15 13:55:27
FromStats_BitRate : 7304921
FromStats_Duration : 01:46:28.424000000
FromStats_FrameCount : 153169
FromStats_StreamSize : 5833366939

Audio #1
ID : 2
Format : AC-3
Format/Info : Audio Coding 3
Commercial name : Dolby Digital
Codec ID : A_AC3
Duration : 1 h 46 min
Bit rate mode : Constant
Bit rate : 192 kb/s
Channel(s) : 2 channels
Channel layout : L R
Sampling rate : 48.0 kHz
Frame rate : 31.250 FPS (1536 SPF)
Bit depth : 16 bits
Compression mode : Lossy
Stream size : 146 MiB (2%)
Title : UKR (Inter)
Language : Ukrainian
Service kind : Complete Main
Default : Yes
Forced : Yes

Audio #2
ID : 3
Format : AC-3
Format/Info : Audio Coding 3
Commercial name : Dolby Digital
Codec ID : A_AC3
Duration : 1 h 46 min
Bit rate mode : Constant
Bit rate : 192 kb/s
Channel(s) : 2 channels
Channel layout : L R
Sampling rate : 48.0 kHz
Frame rate : 31.250 FPS (1536 SPF)
Bit depth : 16 bits
Compression mode : Lossy
Stream size : 146 MiB (2%)
Title : UKR (ICTV)
Language : Ukrainian
Service kind : Complete Main
Default : No
Forced : No

Audio #3
ID : 4
Format :
Format/Info : Digital Theater Systems
Codec ID : A_DTS
Duration : 1 h 46 min
Bit rate mode : Constant
Bit rate : 1 509 kb/s
Channel(s) : 2 channels
Channel layout : L R
Sampling rate : 48.0 kHz
Frame rate : 93.750 FPS (512 SPF)
Bit depth : 24 bits
Compression mode : Lossy
Stream size : 1.12 GiB (16%)
Language : English
Default : No
Forced : No
Statistics Tags Issue : no_variable_data 1970-01-01 00:00:00 / v6.1.0 ('Old Devil') built on Mar 4 2013 09:10:42 2019-03-15 13:55:27
FromStats_BitRate : 1509000
FromStats_Duration : 01:46:29.024000000
FromStats_FrameCount : 598971
FromStats_StreamSize : 1205129652

Text #1
ID : 5
Format : UTF-8
Codec ID : S_TEXT/UTF8
Codec ID/Info : UTF-8 Plain Text
Language : English
Default : No
Forced : No
Statistics Tags Issue : no_variable_data 1970-01-01 00:00:00 / v6.1.0 ('Old Devil') built on Mar 4 2013 09:10:42 2019-03-15 13:55:27
FromStats_BitRate : 41
FromStats_Duration : 01:45:25.308000000
FromStats_FrameCount : 1305
FromStats_StreamSize : 33144

Text #2
ID : 6
Format : UTF-8
Codec ID : S_TEXT/UTF8
Codec ID/Info : UTF-8 Plain Text
Title : SDH
Language : English
Default : No
Forced : No
Statistics Tags Issue : no_variable_data 1970-01-01 00:00:00 / v6.1.0 ('Old Devil') built on Mar 4 2013 09:10:42 2019-03-15 13:55:27
FromStats_BitRate : 46
FromStats_Duration : 01:45:55.171000000
FromStats_FrameCount : 1498
FromStats_StreamSize : 36875

Menu
00:00:00.000 : en:Chapter 01
00:06:07.242 : en:Chapter 02
00:15:01.651 : en:Chapter 03
00:27:16.593 : en:Chapter 04
00:39:19.857 : en:Chapter 05
00:49:28.090 : en:Chapter 06
00:58:19.496 : en:Chapter 07
01:04:22.817 : en:Chapter 08
01:12:51.492 : en:Chapter 09
01:20:06.635 : en:Chapter 10
01:27:48.638 : en:Chapter 11
01:34:50.268 : en:Chapter 12
Скріншоти






За українські доріжки подяка п.: Merdiff, POMEO, ratbol, OlegCena
Особиста подяка пану denixx за надану матеріальну допомогу на підтримку цього і майбутніх релізів.
Джерело:


Срібний реліз (на рейтинг впливає 50% завантаженого)
 Трекер:    Зареєстрований   

Завантажити / скачати фільм українською



відео для новачків



 Зареєстрований:   2019-03-15 17:08
 Розмір:   6.84 GB 
 Оцінка фільму:   9.6/10 (Голосів: 5)
   
Ваш часовий пояс: GMT + 2 Години

Нова тема   Відповісти