Фатальний патруль (Сезон 1, серії 1-6 з 13) / Doom patrol (Season 1, episodes 1-6 of 13) (2019) 720p Ukr/Eng | Sub Eng

Нові коментарі

Нова тема   Відповісти
Автор Повідомлення
Anonymous 







2019-03-15 16:34  
Фатальний патруль (Сезон 1, серії 1-6 з 13) / Doom patrol (Season 1, episodes 1-6 of 13) (2019) 720p Ukr/Eng | Sub Eng

Фатальний патруль (Сезон 1, серії 1-6 з 13) / Doom patrol (Season 1, episodes 1-6 of 13) (2019) 720p Ukr/Eng | Sub Eng


ще постер


Жанр: екшн, пригодницький, комедія
Країна: США



Кінокомпанія: DC Comics
Актори: Брендан Фрейзер, Діан Герреро, Ейпріл Боулбі, Меттью Бомер, Тімоті Далтон.

Сюжет:
У центрі уваги сюжету опиняються справжні супергерої, які не збиралися приймати на себе таку величезну відповідальність. Суперсили головним персонажам дісталися абсолютно випадково і, можливо, вони мріяли про зовсім інше життя. Звичайно ж, фатальні випадковості відбуваються досить часто, але щоб вони настільки круто змінювали життя людини - це поодинокі випадки! У складі нової команди супергероїв, яка буде захищати планету від сил зла, виявилися вельми незвичайні персонажі. Головою цього загону став Найлз Колдер, учений, якого всі називають Шефом. Рядовими супергероями стали Негативна людина, Божевільна Джейн, Еластична Жінка і Роботмен. Правда, саме нашим героям належить захищати планету від представників темних сил, які раз у раз намагаються встановити свої порядки на Землі. Звичайно ж, темні сили не очікували на появу супергероїв, та й навряд чи повірять в їх реальну загрозу, коли побачать цих безглуздих персонажів. Але перше враження, як завжди, оманливе.


Тривалість: 1 серія: ~ 60 хв. (цілком серій: 6 з 13)
Перелік серій
1. Pilot
2. Donkey Patrol
3. Puppet Patrol
4. Cult Patrol
5. Paw Patrol
6. Doom Patrol Patrol
7.
8.
Якість: 720p
Відео:
кодек:
розмір кадру: 1280 х 578
бітрейт: ~ 2 700 кб/с

Аудіо # 1:
мова: українська
переклад: багатоголосий закадровий | DniproFilm
кодек: 2.0
бітрейт: 192 кб/с

Аудіо # 2:
мова: англійська
переклад: оригінал
кодек: 2.0
бітрейт: 128 кб/с

Субтитри:
мова: англійська
тип: програмні (м'які)
формат: *.srt
Info
Format :
Format version : Version 4
File size : 1.21 GiB
Duration : 58 min 30 s
Overall bit rate : 2 957 kb/s
Encoded date : UTC 2019-03-14 20:46:05
Writing application : v27.0.0 ('Metropolis') 64-bit
Writing library : libebml v1.3.6 + v1.4.9
Cover : Yes
Attachments : cover.png

Video
ID : 1
Format : AVC
Format/Info : Advanced Video Codec
Format profile : [email protected]
Format settings : CABAC / 5 Ref Frames
Format settings, CABAC : Yes
Format settings, ReFrames : 5 frames
Codec ID : V_MPEG4/ISO/AVC
Duration : 58 min 29 s
Bit rate : 2 629 kb/s
Width : 1 280 pixels
Height : 578 pixels
Display aspect ratio : 2.2:1
Original display aspect rat : 2.2:1
Frame rate mode : Constant
Frame rate : 23.976 (24000/1001) FPS
Color space : YUV
Chroma subsampling : 4:2:0
Bit depth : 8 bits
Scan type : Progressive
Bits/(Pixel*Frame) : 0.148
Stream size : 1.07 GiB (89%)
Writing library : core 157 r2935 545de2f
Encoding settings : cabac=1 / ref=5 / deblock=1:-3:-3 / analyse=0x3:0x113 / me=umh / subme=8 / psy=1 / psy_rd=1.00:0.00 / mixed_ref=1 / me_range=16 / chroma_me=1 / trellis=2 / 8x8dct=1 / cqm=0 / deadzone=21,11 / fast_pskip=1 / chroma_qp_offset=-2 / threads=18 / lookahead_threads=3 / sliced_threads=0 / nr=0 / decimate=1 / interlaced=0 / bluray_compat=0 / constrained_intra=0 / bframes=3 / b_pyramid=2 / b_adapt=1 / b_bias=0 / direct=3 / weightb=1 / open_gop=0 / weightp=2 / keyint=250 / keyint_min=23 / scenecut=40 / intra_refresh=0 / rc_lookahead=50 / rc=crf / mbtree=1 / crf=18.0 / qcomp=0.60 / qpmin=0 / qpmax=69 / qpstep=4 / ip_ratio=1.40 / aq=3:1.00
Language : English
Default : Yes
Forced : No

Audio #1
ID : 2
Format : AC-3
Format/Info : Audio Coding 3
Commercial name : Dolby Digital
Codec ID : A_AC3
Duration : 58 min 30 s
Bit rate mode : Constant
Bit rate : 192 kb/s
Channel(s) : 2 channels
Channel layout : L R
Sampling rate : 48.0 kHz
Frame rate : 31.250 FPS (1536 SPF)
Bit depth : 16 bits
Compression mode : Lossy
Stream size : 80.4 MiB (6%)
Title : MVO - DniproFilm
Language : Ukrainian
Service kind : Complete Main
Default : Yes
Forced : No

Audio #2
ID : 3
Format : LC
Format/Info : Advanced Audio Codec Low Complexity
Codec ID : A_AAC-2
Duration : 58 min 30 s
Bit rate : 128 kb/s
Channel(s) : 2 channels
Channel layout : L R
Sampling rate : 48.0 kHz
Frame rate : 46.875 FPS (1024 SPF)
Compression mode : Lossy
Stream size : 53.6 MiB (4%)
Language : English
Default : No
Forced : No

Text
ID : 4
Format : UTF-8
Codec ID : S_TEXT/UTF8
Codec ID/Info : UTF-8 Plain Text
Duration : 55 min 30 s
Bit rate : 63 b/s
Count of elements : 949
Stream size : 25.6 KiB (0%)
Language : English
Default : No
Forced : No
Скріншоти







Джерело: & DniproFilm
Особиста оцінка: 8 - мені сподобалося


Авторський реліз (завантажувати можна без реєстрації)
 Трекер:    Зареєстрований   

Завантажити / скачати серіал українською



відео для новачків



 Зареєстрований:   2019-04-03 12:30
 Розмір:   5.75 GB 
 Оцінка серіалу:   9.6/10 (Голосів: 12)
   
zoomymba2012 
VIP


З нами з: 08.01.15
Востаннє: 24.04.19
Повідомлень: 595

2019-03-15 17:02  
DniproFilm написано:
Фатальний патруль

О, ну чому? А як же Горе-чати?


myru22 
Частий відвідувач


З нами з: 27.11.16
Востаннє: 23.04.19
Повідомлень: 37

2019-03-17 14:43  
як серіал? буде переклад Титанів?
zoomymba2012 
VIP


З нами з: 08.01.15
Востаннє: 24.04.19
Повідомлень: 595

2019-03-17 14:57  
myru22 написано:
буде переклад Титанів?

Майже завершений переклад субтитрів, гадаю десь протягом 2 тижнів буде реліз.

Anonymous 







2019-03-26 14:41  
+ 5 серія
zoomymba2012 
VIP


З нами з: 08.01.15
Востаннє: 24.04.19
Повідомлень: 595

2019-03-26 15:30  
Є вбудована реклама?
Anonymous 







2019-03-26 16:29  
zoomymba2012 написано:
Є вбудована реклама?


Адміном написано:
3.8 Заборонено поміщати у роздачу рекламу в будь-якій формі. Цей пункт поширюється на всі роздачі, створені (оновлені) після 12.01.19.

Anonymous 







2019-04-03 12:31  
+ 6 серія
Завзята 
Новенький


З нами з: 10.12.15
Востаннє: 18.04.19
Повідомлень: 22

2019-04-14 16:58  
Тільки не надумайте показувати дітям! Це НЕ сімейний серіал!
Ваш часовий пояс: GMT + 2 Години

Нова тема   Відповісти