Saban's Могутні рейнджери / Power Rangers (2017) Remux 1080p Ukr/Eng | Sub Eng

Нові коментарі

Нова тема   Відповісти
Автор Повідомлення
Anonymous 







2019-03-15 14:41  
Saban's Могутні рейнджери / Power Rangers (2017) Remux 1080p Ukr/Eng | Sub Eng

Saban's Могутні рейнджери / Power Rangers (2017) Remux 1080p Ukr/Eng | Sub Eng


Жанр: бойовик, фантастика, фентезі
Країна: США, Канада





Кінокомпанія: Lionsgate, Temple Hill Entertainment
Режисер: Дін Ісраеліт
Актори: Дакре Монтгомері, АрДжей Сайлер, Наомі Скотт, Беккі Джі, Луді Лін, Браян Кренстон, Елізабет Бенкс, Білл Гадер, Анджалі Джай, Девід Денман

Сюжет:
П'ятеро різних підлітків-старшокласників випадково потрапили на таємничий інопланетний корабель. Там вони отримують суперсили і стають Могутніми Рейнджерами. Друзі думають, що це все просто якась гра і є нереальним. Але коли їх рідному місту Енджел Гроув загрожує інопланетна загроза, підлітки розуміють, що саме вони повинні врятувати його. Тільки разом Могутні Рейнджери зможуть здолати неймовірно сильного противника.


Тривалість: 02:03:58
Якість: Remux 1080p

Відео:
кодек:
розмір кадру: 1920х1080
бітрейт: 19 Мб/с

Аудіо # 1:
мова: українська
переклад: професійний дубльований
кодек: 2.0
бітрейт: 192 кб/с

Аудіо # 2:
мова: англійська
переклад: оригінал
кодек: 5.1
бітрейт: 640 кб/с

Аудіо # 3:
мова: англійська
переклад: оригінал
кодек: TrueHD 7.1
бітрейт: 4881 кб/с

Субтитри (Forced):
мова: українська
тип: програмні (м'які)
формат: *.srt

Субтитри (Full, SDH, SDH-Colored):
мова: англійська
тип: програмні (м'які)
формат: *.srt

Джерело озвучення:
Info
Код:
General
Complete name                            : Power Rangers (2017) Remux [UKR_ENG] [ViDeO_Hurtom].
Format                                   :
Format version                           : Version 4
File size                                : 21.4 GiB
Duration                                 : 2 h 3 min
Overall bit rate mode                    : Variable
Overall bit rate                         : 24.8 Mb/s
Movie name                               : Power Rangers (2017) Remux [UKR_ENG] [ViDeO_Hurtom]
Encoded date                             : UTC 2019-03-18 23:37:06
Writing application                      : v30.1.0 ('Forever And More') 64-bit
Writing library                          : libebml v1.3.6 + v1.4.9

Video
ID                                       : 1
Format                                   : AVC
Format/Info                              : Advanced Video Codec
Format profile                           : [email protected]
Format settings                          : CABAC / 4 Ref Frames
Format settings, CABAC                   : Yes
Format settings, RefFrames               : 4 frames
Codec ID                                 : V_MPEG4/ISO/AVC
Duration                                 : 2 h 3 min
Bit rate mode                            : Variable
Bit rate                                 : 19.0 Mb/s
Maximum bit rate                         : 37.0 Mb/s
Width                                    : 1 920 pixels
Height                                   : 1 080 pixels
Display aspect ratio                     : 16:9
Frame rate mode                          : Constant
Frame rate                               : 23.976 (24000/1001) FPS
Color space                              : YUV
Chroma subsampling                       : 4:2:0
Bit depth                                : 8 bits
Scan type                                : Progressive
Bits/(Pixel*Frame)                       : 0.382
Stream size                              : 16.4 GiB (77%)
Title                                    : Power.Rangers.2017.REMUX.1080p.BluRay.AVC.Atmos.TrueHD.7.1-iFT
Default                                  : Yes
Forced                                   : No

Audio #1
ID                                       : 2
Format                                   : AC-3
Format/Info                              : Audio Coding 3
Commercial name                          : Dolby Digital
Codec ID                                 : A_AC3
Duration                                 : 2 h 3 min
Bit rate mode                            : Constant
Bit rate                                 : 192 kb/s
Channel(s)                               : 2 channels
Channel layout                           : L R
Sampling rate                            : 48.0 kHz
Frame rate                               : 31.250 FPS (1536 SPF)
Bit depth                                : 16 bits
Compression mode                         : Lossy
Stream size                              : 170 MiB (1%)
Title                                    : / 2.0 / 192 kbps
Language                                 : Ukrainian
Service kind                             : Complete Main
Default                                  : Yes
Forced                                   : No

Audio #2
ID                                       : 3
Format                                   : AC-3
Format/Info                              : Audio Coding 3
Commercial name                          : Dolby Digital
Codec ID                                 : A_AC3
Duration                                 : 2 h 3 min
Bit rate mode                            : Constant
Bit rate                                 : 640 kb/s
Channel(s)                               : 6 channels
Channel layout                           : L R C LFE Ls Rs
Sampling rate                            : 48.0 kHz
Frame rate                               : 31.250 FPS (1536 SPF)
Bit depth                                : 16 bits
Compression mode                         : Lossy
Stream size                              : 568 MiB (3%)
Title                                    : / 5.1 / 640 kbps
Language                                 : English
Service kind                             : Complete Main
Default                                  : No
Forced                                   : No

Audio #3
ID                                       : 4
Format                                   : MLP FBA 16-ch
Format/Info                              : Meridian Lossless Packing FBA with 16-channel presentation
Commercial name                          : Dolby TrueHD with Dolby Atmos
Codec ID                                 : A_TRUEHD
Duration                                 : 2 h 3 min
Bit rate mode                            : Variable
Bit rate                                 : 4 882 kb/s
Maximum bit rate                         : 7 578 kb/s
Channel(s)                               : 8 channels
Channel layout                           : L R C LFE Ls Rs Lb Rb
Sampling rate                            : 48.0 kHz
Frame rate                               : 1 200.000 FPS (40 SPF)
Compression mode                         : Lossless
Stream size                              : 4.23 GiB (20%)
Title                                    : Atmos / TrueHD / 7.1 / 4881 kbp
Language                                 : English
Default                                  : No
Forced                                   : No
Number of dynamic objects                : 15
Bed channel count                        : 1 channel
Bed channel configuration                : LFE

Text #1
ID                                       : 5
Format                                   : UTF-8
Codec ID                                 : S_TEXT/UTF8
Codec ID/Info                            : UTF-8 Plain Text
Duration                                 : 1 h 50 min
Bit rate                                 : 1 b/s
Count of elements                        : 36
Stream size                              : 1.59 KiB (0%)
Title                                    : Forced
Language                                 : Ukrainian
Default                                  : Yes
Forced                                   : No

Text #2
ID                                       : 6
Format                                   : UTF-8
Codec ID                                 : S_TEXT/UTF8
Codec ID/Info                            : UTF-8 Plain Text
Duration                                 : 1 h 52 min
Bit rate                                 : 56 b/s
Count of elements                        : 1623
Stream size                              : 46.7 KiB (0%)
Title                                    : Full
Language                                 : English
Default                                  : No
Forced                                   : No

Text #3
ID                                       : 7
Format                                   : UTF-8
Codec ID                                 : S_TEXT/UTF8
Codec ID/Info                            : UTF-8 Plain Text
Duration                                 : 1 h 55 min
Bit rate                                 : 67 b/s
Count of elements                        : 1889
Stream size                              : 56.9 KiB (0%)
Title                                    : SDH
Language                                 : English
Default                                  : No
Forced                                   : No

Text #4
ID                                       : 8
Format                                   : UTF-8
Codec ID                                 : S_TEXT/UTF8
Codec ID/Info                            : UTF-8 Plain Text
Duration                                 : 1 h 55 min
Bit rate                                 : 91 b/s
Count of elements                        : 1877
Stream size                              : 77.8 KiB (0%)
Title                                    : SDH-Colored
Language                                 : English
Default                                  : No
Forced                                   : No
Скріншоти




Джерело:
Особиста оцінка: 8 - мені сподобалося

Підтримати купівлю інших фільмів можна тут.


Над доріжкою працювали: drakon87, Bohdan237, Sando7


Золотий реліз (завантажене не впливає на рейтинг)
 Трекер:    Зареєстрований   

Завантажити / скачати фільм українською



відео для новачків



 Зареєстрований:   2019-03-19 01:58
 Розмір:   21.44 GB 
 Оцінка фільму:   9/10 (Голосів: 10)
   
MrRyanCooper 
VIP


З нами з: 23.08.12
Востаннє: 19.11.19
Повідомлень: 508

2019-03-15 19:24  
Та невже о_О Я й не глянув ще російською Happy Оце так сюрпрайз. А хто озвучив?? Цікаво.
bot 
робот


З нами з: 30.09.07
Востаннє: 26.05.05
Повідомлень: 22629

2019-03-19 01:58  
Тему перенесено з Анонси релізів до форуму Фільми в HD


antik_2008

Ваш часовий пояс: GMT + 2 Години

Нова тема   Відповісти