Saban's Могутні рейнджери / Power Rangers (2017) 1080p Ukr/Eng | Sub Eng

Нові коментарі

Нова тема   Відповісти
Автор Повідомлення
Anonymous 







2019-03-15 14:40  
Saban's Могутні рейнджери / Power Rangers (2017) 1080p Ukr/Eng | Sub Eng

Saban's Могутні рейнджери / Power Rangers (2017) 1080p Ukr/Eng | Sub Eng


Жанр: бойовик, фантастика, фентезі
Країна: США, Канада





Кінокомпанія: Lionsgate, Temple Hill Entertainment
Режисер: Дін Ісраеліт
Актори: Дакре Монтгомері, АрДжей Сайлер, Наомі Скотт, Беккі Джі, Луді Лін, Браян Кренстон, Елізабет Бенкс, Білл Гадер, Анджалі Джай, Девід Денман

Сюжет:
П'ятеро різних підлітків-старшокласників випадково потрапили на таємничий інопланетний корабель. Там вони отримують суперсили і стають Могутніми Рейнджерами. Друзі думають, що це все просто якась гра і є нереальним. Але коли їх рідному місту Енджел Гроув загрожує інопланетна загроза, підлітки розуміють, що саме вони повинні врятувати його. Тільки разом Могутні Рейнджери зможуть здолати неймовірно сильного противника.


Тривалість: 02:03:58
Якість: 1080p

Відео:
кодек:
розмір кадру: 1920х800
бітрейт: 9078 кб/с

Аудіо # 1:
мова: українська
переклад: професійний дубльований
кодек: 2.0
бітрейт: 192 кб/с
примітка: під час титрів є невеличкий епізод без перекладу (01:55:30 - 01:55:56)

Аудіо # 2:
мова: англійська
переклад: оригінал
кодек: 5.1
бітрейт: 640 кб/с

Субтитри (Forced):
мова: українська
тип: програмні (м'які)
формат: *.srt

Субтитри (Full, SDH, SDH-Colored):
мова: англійська
тип: програмні (м'які)
формат: *.srt

Джерело озвучення:
Info
Код:
General
Complete name                            : Power Rangers (2017) 1080p [UKR_ENG] [ViDeO_Hurtom].
Format                                   :
Format version                           : Version 4
File size                                : 8.58 GiB
Duration                                 : 2 h 3 min
Overall bit rate                         : 9 913 kb/s
Movie name                               : Power Rangers (2017) 1080p [UKR_ENG] [ViDeO_Hurtom]
Encoded date                             : UTC 2019-03-18 13:53:58
Writing application                      : v30.1.0 ('Forever And More') 64-bit
Writing library                          : libebml v1.3.6 + v1.4.9

Video
ID                                       : 1
Format                                   : AVC
Format/Info                              : Advanced Video Codec
Format profile                           : [email protected]
Format settings                          : CABAC / 4 Ref Frames
Format settings, CABAC                   : Yes
Format settings, RefFrames               : 4 frames
Codec ID                                 : V_MPEG4/ISO/AVC
Duration                                 : 2 h 3 min
Bit rate                                 : 9 078 kb/s
Width                                    : 1 920 pixels
Height                                   : 800 pixels
Display aspect ratio                     : 2.40:1
Frame rate mode                          : Constant
Frame rate                               : 23.976 (24000/1001) FPS
Color space                              : YUV
Chroma subsampling                       : 4:2:0
Bit depth                                : 8 bits
Scan type                                : Progressive
Bits/(Pixel*Frame)                       : 0.247
Stream size                              : 7.86 GiB (92%)
Writing library                          : core 142 r2431+42 c69a006 tMod [[email protected]:2:0 X86_64]
Encoding settings                        : cabac=1 / ref=4 / deblock=1:-3:-3 / analyse=0x3:0x113 / me=umh / subme=10 / psy=1 / fade_compensate=0.00 / psy_rd=1.00:0.05 / mixed_ref=1 / me_range=48 / chroma_me=1 / trellis=2 / 8x8dct=1 / cqm=0 / deadzone=21,11 / fast_pskip=0 / chroma_qp_offset=-2 / threads=12 / lookahead_threads=2 / sliced_threads=0 / nr=0 / decimate=1 / interlaced=0 / bluray_compat=0 / constrained_intra=0 / fgo=0 / bframes=8 / b_pyramid=2 / b_adapt=2 / b_bias=0 / direct=3 / weightb=1 / open_gop=0 / weightp=2 / keyint=250 / keyint_min=23 / scenecut=40 / intra_refresh=0 / rc_lookahead=40 / rc=crf / mbtree=0 / crf=19.0000 / qcomp=0.60 / qpmin=0:0:0 / qpmax=69:69:69 / qpstep=4 / vbv_maxrate=50000 / vbv_bufsize=45000 / crf_max=0.0 / nal_hrd=none / filler=0 / ip_ratio=1.40 / pb_ratio=1.30 / aq=3:1.00 / aq-sensitivity=10.00 / aq-factor=1.00:1.00:1.00 / aq2=0 / aq3=0
Language                                 : English
Default                                  : Yes
Forced                                   : No
Color range                              : Limited
Matrix coefficients                      : BT.709

Audio #1
ID                                       : 2
Format                                   : AC-3
Format/Info                              : Audio Coding 3
Commercial name                          : Dolby Digital
Codec ID                                 : A_AC3
Duration                                 : 2 h 3 min
Bit rate mode                            : Constant
Bit rate                                 : 192 kb/s
Channel(s)                               : 2 channels
Channel layout                           : L R
Sampling rate                            : 48.0 kHz
Frame rate                               : 31.250 FPS (1536 SPF)
Bit depth                                : 16 bits
Compression mode                         : Lossy
Stream size                              : 170 MiB (2%)
Title                                    : , 2 ch, 192 Кбт/с
Language                                 : Ukrainian
Service kind                             : Complete Main
Default                                  : Yes
Forced                                   : No

Audio #2
ID                                       : 3
Format                                   : AC-3
Format/Info                              : Audio Coding 3
Commercial name                          : Dolby Digital
Codec ID                                 : A_AC3
Duration                                 : 2 h 3 min
Bit rate mode                            : Constant
Bit rate                                 : 640 kb/s
Channel(s)                               : 6 channels
Channel layout                           : L R C LFE Ls Rs
Sampling rate                            : 48.0 kHz
Frame rate                               : 31.250 FPS (1536 SPF)
Bit depth                                : 16 bits
Compression mode                         : Lossy
Stream size                              : 568 MiB (6%)
Title                                    : , 6 ch, 640 Кбт/с
Language                                 : English
Service kind                             : Complete Main
Default                                  : No
Forced                                   : No

Text #1
ID                                       : 4
Format                                   : UTF-8
Codec ID                                 : S_TEXT/UTF8
Codec ID/Info                            : UTF-8 Plain Text
Duration                                 : 1 h 50 min
Bit rate                                 : 1 b/s
Count of elements                        : 36
Stream size                              : 1.59 KiB (0%)
Title                                    : Forced
Language                                 : Ukrainian
Default                                  : Yes
Forced                                   : No

Text #2
ID                                       : 5
Format                                   : UTF-8
Codec ID                                 : S_TEXT/UTF8
Codec ID/Info                            : UTF-8 Plain Text
Duration                                 : 1 h 52 min
Bit rate                                 : 56 b/s
Count of elements                        : 1623
Stream size                              : 46.7 KiB (0%)
Title                                    : Full
Language                                 : English
Default                                  : No
Forced                                   : No

Text #3
ID                                       : 6
Format                                   : UTF-8
Codec ID                                 : S_TEXT/UTF8
Codec ID/Info                            : UTF-8 Plain Text
Duration                                 : 1 h 55 min
Bit rate                                 : 67 b/s
Count of elements                        : 1889
Stream size                              : 56.9 KiB (0%)
Title                                    : SDH
Language                                 : English
Default                                  : No
Forced                                   : No

Text #4
ID                                       : 7
Format                                   : UTF-8
Codec ID                                 : S_TEXT/UTF8
Codec ID/Info                            : UTF-8 Plain Text
Duration                                 : 1 h 55 min
Bit rate                                 : 91 b/s
Count of elements                        : 1877
Stream size                              : 77.8 KiB (0%)
Title                                    : SDH Colored
Language                                 : English
Default                                  : No
Forced                                   : No
Скріншоти


Джерело:
Особиста оцінка: 8 - мені сподобалося

Підтримати купівлю інших фільмів можна тут.


Над доріжкою працювали: drakon87, Bohdan237, Sando7


 Трекер:    Зареєстрований   

Завантажити / скачати фільм українською



відео для новачків



 Зареєстрований:   2019-03-18 16:09
 Розмір:   8.58 GB 
 Оцінка фільму:   8.2/10 (Голосів: 17)
   
bot 
робот


З нами з: 30.09.07
Востаннє: 26.05.05
Повідомлень: 22591

2019-03-18 16:09  
Тему перенесено з Анонси релізів до форуму Фільми в HD


antik_2008

Neo7g 
Частий відвідувач


З нами з: 21.01.11
Востаннє: 26.11.19
Повідомлень: 28

2019-03-20 22:51  
Фільма просто суцільне дно. Гра акторів, музика на фоні просто ніякі. Сюжет можна сказати взагалі відсутній і не має жодної логіки. Не робіть моєї помилки і не тратьте 2години свого життя на цей шлак.
andriy225 
Новенький


З нами з: 02.11.12
Востаннє: 04.12.19
Повідомлень: 24

2019-03-20 23:21  
Фу, гіршого фільму не бачив. НЕ дивіться його, будете потім довго шкодувати за витрачений час.
KeryaS 
Поважний учасник


З нами з: 01.09.14
Востаннє: 06.12.19
Повідомлень: 238

2019-03-22 21:59  
Дубляж нікудишній, краще б закадровий переклад зробили. Фільм на один раз, нічого видатного.
Ваш часовий пояс: GMT + 2 Години

Нова тема   Відповісти