Шульга / Southpaw (2015) 1080p H.265 Ukr/Eng | Sub Eng

Нові коментарі

Нова тема   Відповісти
Автор Повідомлення
Anonymous 







2019-03-15 11:43  
Шульга / Southpaw (2015) 1080p H.265 Ukr/Eng | Sub Eng

Шульга / Southpaw (2015) 1080p H.265 Ukr/Eng | Sub Eng


Жанр: спорт, драма
Країна: США, Гонконг
Кінокомпанія: Weinstein Company, Escape Artists
Режисер: Антуан Фукуа
Актори: Джейк Джилленгол, Рейчел МакАдамс, Наомі Гарріс, Форест Вайтакер, Уна Лоуренс, Кертіс Джексон, Бо Напп.

Сюжет:
Історія боксера з важкою долею, що намагається повернути собі колишню славу заради маленької дочки.

Тривалість: 02:03:48
Якість:
Відео:
кодек: H.265 (HEVC)
розмір кадру: 1920 x 796
бітрейт: 5 443 кб/с
бітова глибина: 10 біт
Увага! Перед завантаженням переконайтесь, що ваш пристрій відтворення (та/або ПЗ) підтримує H.265 (HEVC)

Аудіо # 1:
мова: українська
переклад: багатоголосий закадровий
кодек: AC-3 2.0
бітрейт: 192 кб/с

Аудіо # 2:
мова: англійська
переклад: оригінал
кодек: AC-3 5.1
бітрейт: 640 кб/с

Субтитри # 1:
мова: англійська (Full),
тип: програмні (м'які)
формат: *.srt

Субтитри # 2:
мова: англійська (SDH),
тип: програмні (м'які)
формат: *.srt


Info
Код:
General
Unique ID                                : 112916404366799174189060095098819440377 (0x54F2E88F68D64F58CAD03C7E9E73EEF9)
Complete name                            : F:\Video\Southpaw (2015) 1080p H.265 [UKR_ENG] [Hurtom].
Format                                   :
Format version                           : Version 4 / Version 2
File size                                : 5.43 GiB
Duration                                 : 2 h 3 min
Overall bit rate                         : 6 278 kb/s
Movie name                               : Southpaw (2015)
Encoded date                             : UTC 2019-03-15 07:54:53
Writing application                      : v32.0.0 ('Astral Progressions') 64-bit
Writing library                          : libebml v1.3.7 + v1.5.0
Cover                                    : Yes
Attachments                              : cover.jpg

Video
ID                                       : 1
Format                                   : HEVC
Format/Info                              : High Efficiency Video Coding
Format profile                           : Main [email protected]@High
Codec ID                                 : V_MPEGH/ISO/HEVC
Duration                                 : 2 h 3 min
Bit rate                                 : 5 443 kb/s
Width                                    : 1 920 pixels
Height                                   : 796 pixels
Display aspect ratio                     : 2.40:1
Frame rate mode                          : Constant
Frame rate                               : 23.976 (24000/1001) FPS
Color space                              : YUV
Chroma subsampling                       : 4:2:0
Bit depth                                : 10 bits
Bits/(Pixel*Frame)                       : 0.149
Stream size                              : 4.71 GiB (87%)
Title                                    : Southpaw (2015)
Writing library                          : x265 2.9+9-f74003e88622:[Windows][GCC 8.2.0][64 bit] 10bit
Encoding settings                        : cpuid=1111039 / frame-threads=9 / numa-pools=8 / wpp / no-pmode / no-pme / no-psnr / no-ssim / log-level=3 / input-csp=1 / input-res=1920x796 / interlace=0 / total-frames=0 / level-idc=51 / high-tier=1 / uhd-bd=0 / ref=5 / allow-non-conformance / no-repeat-headers / annexb / no-aud / no-hrd / info / hash=0 / no-temporal-layers / open-gop / min-keyint=23 / keyint=250 / gop-lookahead=0 / bframes=8 / b-adapt=2 / b-pyramid / bframe-bias=0 / rc-lookahead=40 / lookahead-slices=5 / scenecut=40 / radl=0 / no-intra-refresh / ctu=64 / min-cu-size=8 / no-rect / no-amp / max-tu-size=32 / tu-inter-depth=1 / tu-intra-depth=1 / limit-tu=0 / rdoq-level=0 / dynamic-rd=0.00 / no-ssim-rd / signhide / no-tskip / nr-intra=0 / nr-inter=0 / no-constrained-intra / no-strong-intra-smoothing / max-merge=2 / limit-refs=3 / no-limit-modes / me=3 / subme=7 / merange=57 / temporal-mvp / weightp / weightb / no-analyze-src-pics / deblock=-2:-2 / no-sao / no-sao-non-deblock / rd=3 / no-early-skip / rskip / no-fast-intra / no-tskip-fast / no-cu-lossless / no-b-intra / no-splitrd-skip / rdpenalty=0 / psy-rd=2.00 / psy-rdoq=0.00 / no-rd-refine / no-lossless / cbqpoffs=0 / crqpoffs=0 / rc=crf / crf=18.0 / qcomp=0.65 / qpstep=2 / stats-write=0 / stats-read=0 / vbv-maxrate=50000 / vbv-bufsize=50000 / vbv-init=0.9 / crf-max=0.0 / crf-min=0.0 / ipratio=1.40 / pbratio=1.30 / aq-mode=1 / aq-strength=1.00 / cutree / zone-count=0 / no-strict-cbr / qg-size=32 / no-rc-grain / qpmax=69 / qpmin=0 / no-const-vbv / sar=1 / overscan=0 / videoformat=5 / range=0 / colorprim=2 / transfer=2 / colormatrix=2 / chromaloc=0 / display-window=0 / max-cll=0,0 / min-luma=0 / max-luma=1023 / log2-max-poc-lsb=8 / vui-timing-info / vui-hrd-info / slices=1 / no-opt-qp-pps / no-opt-ref-list-length-pps / no-multi-pass-opt-rps / scenecut-bias=0.05 / no-opt-cu-delta-qp / no-aq-motion / no-hdr / no-hdr-opt / no-dhdr10-opt / no-idr-recovery-sei / analysis-reuse-level=5 / scale-factor=0 / refine-intra=0 / refine-inter=0 / refine-mv=0 / no-limit-sao / ctu-info=0 / no-lowpass-dct / refine-mv-type=0 / copy-pic=1 / max-ausize-factor=1.0 / no-dynamic-refine / no-single-sei
Default                                  : Yes
Forced                                   : No

Audio #1
ID                                       : 2
Format                                   : AC-3
Format/Info                              : Audio Coding 3
Codec ID                                 : A_AC3
Duration                                 : 2 h 3 min
Bit rate mode                            : Constant
Bit rate                                 : 192 kb/s
Channel(s)                               : 2 channels
Channel positions                        : Front: L R
Sampling rate                            : 48.0 kHz
Frame rate                               : 31.250 FPS (1536 SPF)
Bit depth                                : 16 bits
Compression mode                         : Lossy
Stream size                              : 170 MiB (3%)
Title                                    : БЗ - Cine+
Language                                 : Ukrainian
Service kind                             : Complete Main
Default                                  : Yes
Forced                                   : Yes

Audio #2
ID                                       : 3
Format                                   : AC-3
Format/Info                              : Audio Coding 3
Codec ID                                 : A_AC3
Duration                                 : 2 h 3 min
Bit rate mode                            : Constant
Bit rate                                 : 640 kb/s
Channel(s)                               : 6 channels
Channel positions                        : Front: L C R, Side: L R, LFE
Sampling rate                            : 48.0 kHz
Frame rate                               : 31.250 FPS (1536 SPF)
Bit depth                                : 16 bits
Compression mode                         : Lossy
Stream size                              : 567 MiB (10%)
Title                                    : Original
Language                                 : English
Service kind                             : Complete Main
Default                                  : No
Forced                                   : No

Text #1
ID                                       : 4
Format                                   : UTF-8
Codec ID                                 : S_TEXT/UTF8
Codec ID/Info                            : UTF-8 Plain Text
Duration                                 : 1 h 57 min
Bit rate                                 : 78 b/s
Count of elements                        : 2150
Stream size                              : 68.0 KiB (0%)
Title                                    : Full
Language                                 : English
Default                                  : Yes
Forced                                   : No

Text #2
ID                                       : 5
Format                                   : UTF-8
Codec ID                                 : S_TEXT/UTF8
Codec ID/Info                            : UTF-8 Plain Text
Duration                                 : 1 h 59 min
Bit rate                                 : 87 b/s
Count of elements                        : 2383
Stream size                              : 76.7 KiB (0%)
Title                                    : SDH
Language                                 : English
Default                                  : No
Forced                                   : No

Menu
00:00:00.000                             : :Chapter 1
00:08:49.695                             : :Chapter 2
00:12:58.569                             : :Chapter 3
00:20:00.657                             : :Chapter 4
00:23:40.085                             : :Chapter 5
00:29:34.147                             : :Chapter 6
00:34:59.554                             : :Chapter 7
00:39:44.298                             : :Chapter 8
00:45:46.285                             : :Chapter 9
00:52:38.655                             : :Chapter 10
00:59:28.815                             : :Chapter 11
01:07:08.733                             : :Chapter 12
01:12:49.823                             : :Chapter 13
01:18:14.481                             : :Chapter 14
01:23:40.056                             : :Chapter 15
01:29:40.416                             : :Chapter 16
01:37:00.147                             : :Chapter 17
01:45:19.896                             : :Chapter 18
01:55:01.060                             : :Chapter 19
01:59:38.504                             : :Chapter 20
02:03:28.192                             : :Chapter 21
Світлини





Джерело: &
Особиста оцінка: 10 - без зайвих вагань рекомендую всім!


 Трекер:    Зареєстрований   

Завантажити / скачати фільм українською



відео для новачків



 Зареєстрований:   2019-03-15 11:43
 Розмір:   5.43 GB 
 Оцінка фільму:   9.5/10 (Голосів: 2)
   
Інші релізи
   Шульга / Southpaw (2015) AVC Ukr/Eng | Sub Eng igor911  5 / 0   2.65 GB   2017-04-17 16:36 
   Шульга / Southpaw (2015) 720p Ukr/Eng | Sub Eng igor911  3 / 0   6.96 GB   2017-04-17 16:08 
   Шульга / Southpaw (2015) 1080p Ukr/Eng | Sub Eng Bod_zik99  1 / 0   11.11 GB   2017-04-17 12:55 
   Шульга / Southpaw (2015) Gelios  6 / 0   1.45 GB   2017-04-17 12:00 
Ваш часовий пояс: GMT + 2 Години

Нова тема   Відповісти