Похмілля. Трилогія / The Hangover. Trilogy (2009/2011/2013) 1080p H.265 Ukr/Eng | Sub Eng

Нові коментарі

Нова тема   Відповісти
Автор Повідомлення
-Star-Lord- 
VIP


З нами з: 09.08.18
Востаннє: 19.04.19
Повідомлень: 736

2019-03-15 12:02  
Похмілля. Трилогія / The Hangover. Trilogy (2009/2011/2013) 1080p H.265 Ukr/Eng | Sub Eng

Похмілля. Трилогія / The Hangover. Trilogy (2009/2011/2013) 1080p H.265 Ukr/Eng | Sub Eng

1.1. Похмілля у Вегасі (Театральна версія) / The Hangover (Teatrical) (2009) 1080p H.265 Ukr/Eng | Sub Eng
Похмілля у Вегасі / The Hangover (Teatrical) (2009) 1080p H.265 Ukr/Eng | Sub Eng

Похмілля. Трилогія / The Hangover. Trilogy (2009/2011/2013) 1080p H.265 Ukr/Eng | Sub Eng


Жанр: комедія
Країна: США
Кінокомпанія: Warner Brothers
Режисер: Тод Філіпс
Актори: Бредлі Купер, Ед Хелмс, Зак Галіфіанакіс, Джастін Барта, Хізер Грем, Александра Барезі, Джефрі Тембор, Кен Жонг, Рейчел Харіс та інші

Сюжет:
У розпалі гулянки троє друзів загубили жениха. І це за 40 годин до весілля! Тепер їм доведеться згадати і проаналізувати все що сталося з ними вночі, адже жоден з них нічого не пам'ятає. А коли вони все нарешті пригадали, то виявилось що жениха забули на даху готелю...

Тривалість: 01:39:45
Якість:
Відео:
кодек: H.265 (HEVC)
розмір кадру: 1920 x 800
бітрейт: 7 565 кб/с
бітова глибина: 10 біт
Увага! Перед завантаженням переконайтесь, що ваш пристрій відтворення (та/або ПЗ) підтримує H.265 (HEVC)

Аудіо # 1:
мова: українська
переклад: професійний дубльований
кодек: AC-3 5.1
бітрейт: 640 кб/с

Аудіо # 2:
мова: англійська
переклад: оригінал
кодек: AC-3 5.1
бітрейт: 640 кб/с

Субтитри # 1:
мова: англійська (Full),
тип: програмні (м'які)
формат: *.srt


Info
Код:
General
Unique ID                                : 325432995357942351858914048291439686480 (0xF4D41D74E8DD5DCDBDD51F7BFF58B350)
Complete name                            : F:\Video\The Hangover. Trilogy (2009-2013) 1080p H.265 [UKR_ENG] [Hurtom]\1.1 The Hangover (2009) [TEATRICAL] 1080p H.265 [UKR_ENG] [Hurtom].
Format                                   :
Format version                           : Version 4 / Version 2
File size                                : 6.17 GiB
Duration                                 : 1 h 39 min
Overall bit rate                         : 8 846 kb/s
Movie name                               : The Hangover [Theatrical Cut] (2009)
Encoded date                             : UTC 2019-03-19 20:24:51
Writing application                      : v20.0.0 ('I Am The Sun') 64-bit
Writing library                          : libebml v1.3.5 + v1.4.8
Cover                                    : Yes
Attachments                              : Cover.jpg

Video
ID                                       : 1
Format                                   : HEVC
Format/Info                              : High Efficiency Video Coding
Format profile                           : Main [email protected]@High
Codec ID                                 : V_MPEGH/ISO/HEVC
Duration                                 : 1 h 39 min
Bit rate                                 : 7 565 kb/s
Width                                    : 1 920 pixels
Height                                   : 800 pixels
Display aspect ratio                     : 2.40:1
Frame rate mode                          : Constant
Frame rate                               : 23.976 (24000/1001) FPS
Color space                              : YUV
Chroma subsampling                       : 4:2:0
Bit depth                                : 10 bits
Bits/(Pixel*Frame)                       : 0.205
Stream size                              : 5.27 GiB (86%)
Title                                    : The Hangover [Theatrical Cut] (2009)
Writing library                          : x265 3.0_Au+3-5b90dc59b57a:[Windows][clang 7.0.1][64 bit] 10bit
Encoding settings                        : cpuid=1049583 / frame-threads=5 / numa-pools=4 / wpp / no-pmode / no-pme / no-psnr / no-ssim / log-level=3 / input-csp=1 / input-res=1920x800 / interlace=0 / total-frames=0 / level-idc=51 / high-tier=1 / uhd-bd=0 / ref=5 / allow-non-conformance / no-repeat-headers / annexb / no-aud / no-hrd / info / hash=0 / no-temporal-layers / open-gop / min-keyint=23 / keyint=240 / gop-lookahead=0 / bframes=8 / b-adapt=2 / b-pyramid / bframe-bias=0 / rc-lookahead=60 / lookahead-slices=5 / scenecut=40 / radl=0 / no-splice / no-intra-refresh / ctu=64 / min-cu-size=8 / no-rect / no-amp / max-tu-size=32 / tu-inter-depth=1 / tu-intra-depth=1 / limit-tu=0 / rdoq-level=0 / dynamic-rd=0.00 / no-ssim-rd / signhide / no-tskip / nr-intra=0 / nr-inter=0 / no-constrained-intra / no-strong-intra-smoothing / max-merge=2 / limit-refs=3 / no-limit-modes / me=3 / subme=7 / merange=57 / temporal-mvp / weightp / no-weightb / no-analyze-src-pics / deblock=-3:-3 / no-sao / no-sao-non-deblock / rd=3 / no-early-skip / rskip / no-fast-intra / no-tskip-fast / no-cu-lossless / no-b-intra / no-splitrd-skip / rdpenalty=0 / psy-rd=2.00 / psy-rdoq=0.00 / no-rd-refine / no-lossless / cbqpoffs=0 / crqpoffs=0 / rc=crf / crf=18.0 / qcomp=0.70 / qpstep=4 / stats-write=0 / stats-read=0 / vbv-maxrate=50000 / vbv-bufsize=50000 / vbv-init=0.9 / crf-max=30.0 / crf-min=0.0 / ipratio=1.40 / pbratio=1.30 / aq-mode=1 / aq-strength=1.00 / no-cutree / zone-count=0 / no-strict-cbr / qg-size=32 / no-rc-grain / qpmax=69 / qpmin=0 / no-const-vbv / sar=1 / overscan=0 / videoformat=5 / range=0 / colorprim=1 / transfer=1 / colormatrix=1 / chromaloc=0 / display-window=0 / max-cll=0,0 / min-luma=0 / max-luma=1023 / log2-max-poc-lsb=8 / vui-timing-info / vui-hrd-info / slices=1 / no-opt-qp-pps / no-opt-ref-list-length-pps / no-multi-pass-opt-rps / scenecut-bias=0.05 / no-opt-cu-delta-qp / no-aq-motion / no-hdr / no-hdr-opt / no-dhdr10-opt / no-idr-recovery-sei / analysis-reuse-level=5 / scale-factor=0 / refine-intra=0 / refine-inter=0 / refine-mv=0 / refine-ctu-distortion=0 / no-limit-sao / ctu-info=0 / no-lowpass-dct / refine-analysis-type=0 / copy-pic=1 / max-ausize-factor=1.0 / no-dynamic-refine / no-single-sei / hevc-aq / qp-adaptation-range=1.00
Language                                 : English
Default                                  : Yes
Forced                                   : No
Color range                              : Limited
Color primaries                          : BT.709
Transfer characteristics                 : BT.709
Matrix coefficients                      : BT.709

Audio #1
ID                                       : 2
Format                                   : AC-3
Format/Info                              : Audio Coding 3
Codec ID                                 : A_AC3
Duration                                 : 1 h 39 min
Bit rate mode                            : Constant
Bit rate                                 : 640 kb/s
Channel(s)                               : 6 channels
Channel positions                        : Front: L C R, Side: L R, LFE
Sampling rate                            : 48.0 kHz
Frame rate                               : 31.250 FPS (1536 SPF)
Bit depth                                : 16 bits
Compression mode                         : Lossy
Stream size                              : 457 MiB (7%)
Title                                    : 5.1 640 Kbps ПД, Blu-ray CEE
Language                                 : Ukrainian
Service kind                             : Complete Main
Default                                  : Yes
Forced                                   : Yes

Audio #2
ID                                       : 3
Format                                   : AC-3
Format/Info                              : Audio Coding 3
Codec ID                                 : A_AC3
Duration                                 : 1 h 39 min
Bit rate mode                            : Constant
Bit rate                                 : 640 kb/s
Channel(s)                               : 6 channels
Channel positions                        : Front: L C R, Side: L R, LFE
Sampling rate                            : 48.0 kHz
Frame rate                               : 31.250 FPS (1536 SPF)
Bit depth                                : 16 bits
Compression mode                         : Lossy
Stream size                              : 457 MiB (7%)
Title                                    : 5.1 640 Kbps, Original
Language                                 : English
Service kind                             : Complete Main
Default                                  : No
Forced                                   : No

Text
ID                                       : 4
Format                                   : UTF-8
Codec ID                                 : S_TEXT/UTF8
Codec ID/Info                            : UTF-8 Plain Text
Duration                                 : 1 h 39 min
Bit rate                                 : 86 b/s
Count of elements                        : 1652
Stream size                              : 62.8 KiB (0%)
Title                                    : Full
Language                                 : English
Default                                  : Yes
Forced                                   : No

Menu
00:00:00.000                             : en:00:00:00.000
00:03:43.390                             : en:00:03:43.390
00:09:15.013                             : en:00:09:15.013
00:14:10.183                             : en:00:14:10.183
00:18:59.221                             : en:00:18:59.221
00:23:19.023                             : en:00:23:19.023
00:28:59.696                             : en:00:28:59.696
00:34:03.375                             : en:00:34:03.375
00:37:03.596                             : en:00:37:03.596
00:39:53.975                             : en:00:39:53.975
00:42:51.194                             : en:00:42:51.194
00:47:34.977                             : en:00:47:34.977
00:52:08.375                             : en:00:52:08.375
00:57:48.173                             : en:00:57:48.173
01:01:08.999                             : en:01:01:08.999
01:05:28.258                             : en:01:05:28.258
01:07:57.991                             : en:01:07:57.991
01:12:32.431                             : en:01:12:32.431
01:16:24.079                             : en:01:16:24.079
01:22:40.164                             : en:01:22:40.164
01:25:50.062                             : en:01:25:50.062
01:30:21.625                             : en:01:30:21.625
01:32:48.188                             : en:01:32:48.188
01:36:00.880                             : en:01:36:00.880
Світлини



1.2. Похмілля у Вегасі (Розширена версія) / The Hangover (2009) (UNRATED) 1080p H.265 Ukr/Eng | Sub Eng
Похмілля у Вегасі (Розширена версія) / The Hangover (2009) (UNRATED) 1080p H.265 Ukr/Eng | Sub Eng

Похмілля. Трилогія / The Hangover. Trilogy (2009/2011/2013) 1080p H.265 Ukr/Eng | Sub Eng


Жанр: комедія
Країна: США
Кінокомпанія: Warner Brothers
Режисер: Тод Філіпс
Актори: Бредлі Купер, Ед Хелмс, Зак Галіфіанакіс, Джастін Барта, Хізер Грем, Александра Барезі, Джефрі Тембор, Кен Жонг, Рейчел Харіс та інші

Сюжет:
У розпалі гулянки троє друзів загубили жениха. І це за 40 годин до весілля! Тепер їм доведеться згадати і проаналізувати все що сталося з ними вночі, адже жоден з них нічого не пам'ятає. А коли вони все нарешті пригадали, то виявилось що жениха забули на даху готелю...

Тривалість: 01:47:53
Якість:
Відео:
кодек: H.265 (HEVC)
розмір кадру: 1920 x 800
бітрейт: 7 367 кб/с
бітова глибина: 10 біт
Увага! Перед завантаженням переконайтесь, що ваш пристрій відтворення (та/або ПЗ) підтримує H.265 (HEVC)

Аудіо # 1:
мова: українська
переклад: професійний дубльований
кодек: AC-3 5.1
бітрейт: 640 кб/с

Аудіо # 2:
мова: англійська
переклад: оригінал
кодек: AC-3 5.1
бітрейт: 640 кб/с

Субтитри # 1:
мова: українська (Forced),
тип: програмні (м'які)
формат: *.srt

Субтитри # 2:
мова: англійська (Full),
тип: програмні (м'які)
формат: *.srt


Info
Код:
General
Unique ID                                : 288231872647362019106535721268430912979 (0xD8D7707F85B72D70E8AB2F9E96BA3DD3)
Complete name                            : F:\Video\The Hangover. Trilogy (2009-2013) 1080p H.265 [UKR_ENG] [Hurtom]\1.2 The Hangover (2009) [UNRATED] 1080p H.265 [UKR_ENG] [Hurtom].
Format                                   :
Format version                           : Version 4
File size                                : 6.52 GiB
Duration                                 : 1 h 47 min
Overall bit rate                         : 8 650 kb/s
Movie name                               : The Hangover [UNRATED] (2009)
Encoded date                             : UTC 2019-03-18 11:33:45
Writing application                      : v20.0.0 ('I Am The Sun') 64-bit
Writing library                          : libebml v1.3.5 + v1.4.8
Cover                                    : Yes
Attachments                              : Cover.jpg

Video
ID                                       : 1
Format                                   : HEVC
Format/Info                              : High Efficiency Video Coding
Format profile                           : Main [email protected]@High
Codec ID                                 : V_MPEGH/ISO/HEVC
Duration                                 : 1 h 47 min
Bit rate                                 : 7 367 kb/s
Width                                    : 1 920 pixels
Height                                   : 800 pixels
Display aspect ratio                     : 2.40:1
Frame rate mode                          : Constant
Frame rate                               : 23.976 (24000/1001) FPS
Color space                              : YUV
Chroma subsampling                       : 4:2:0
Bit depth                                : 10 bits
Bits/(Pixel*Frame)                       : 0.200
Stream size                              : 5.55 GiB (85%)
Title                                    : The Hangover [UNRATED] (2009)
Writing library                          : x265 2.9+9-f74003e88622:[Windows][GCC 8.2.0][64 bit] 10bit
Encoding settings                        : cpuid=1049583 / frame-threads=5 / numa-pools=4 / wpp / no-pmode / no-pme / no-psnr / no-ssim / log-level=3 / input-csp=1 / input-res=1920x800 / interlace=0 / total-frames=0 / level-idc=41 / high-tier=1 / uhd-bd=0 / ref=5 / allow-non-conformance / no-repeat-headers / annexb / no-aud / no-hrd / info / hash=0 / no-temporal-layers / open-gop / min-keyint=24 / keyint=240 / gop-lookahead=0 / bframes=16 / b-adapt=2 / b-pyramid / bframe-bias=0 / rc-lookahead=40 / lookahead-slices=5 / scenecut=40 / radl=0 / no-intra-refresh / ctu=64 / min-cu-size=8 / rect / no-amp / max-tu-size=32 / tu-inter-depth=1 / tu-intra-depth=1 / limit-tu=0 / rdoq-level=0 / dynamic-rd=0.00 / no-ssim-rd / signhide / no-tskip / nr-intra=0 / nr-inter=0 / no-constrained-intra / strong-intra-smoothing / max-merge=2 / limit-refs=3 / no-limit-modes / me=3 / subme=7 / merange=57 / temporal-mvp / weightp / no-weightb / no-analyze-src-pics / deblock=-3:-3 / no-sao / no-sao-non-deblock / rd=4 / no-early-skip / rskip / no-fast-intra / no-tskip-fast / no-cu-lossless / no-b-intra / no-splitrd-skip / rdpenalty=0 / psy-rd=2.00 / psy-rdoq=0.00 / no-rd-refine / no-lossless / cbqpoffs=0 / crqpoffs=0 / rc=crf / crf=16.5 / qcomp=0.60 / qpstep=4 / stats-write=0 / stats-read=0 / vbv-maxrate=50000 / vbv-bufsize=50000 / vbv-init=0.9 / crf-max=0.0 / crf-min=0.0 / ipratio=1.40 / pbratio=1.30 / aq-mode=1 / aq-strength=1.00 / cutree / zone-count=0 / no-strict-cbr / qg-size=32 / no-rc-grain / qpmax=69 / qpmin=0 / no-const-vbv / sar=1 / overscan=0 / videoformat=5 / range=0 / colorprim=1 / transfer=1 / colormatrix=1 / chromaloc=0 / display-window=0 / max-cll=0,0 / min-luma=0 / max-luma=1023 / log2-max-poc-lsb=8 / vui-timing-info / vui-hrd-info / slices=1 / no-opt-qp-pps / no-opt-ref-list-length-pps / no-multi-pass-opt-rps / scenecut-bias=0.05 / no-opt-cu-delta-qp / no-aq-motion / no-hdr / no-hdr-opt / no-dhdr10-opt / no-idr-recovery-sei / analysis-reuse-level=5 / scale-factor=0 / refine-intra=0 / refine-inter=0 / refine-mv=0 / no-limit-sao / ctu-info=0 / no-lowpass-dct / refine-mv-type=0 / copy-pic=1 / max-ausize-factor=1.0 / no-dynamic-refine / no-single-sei
Language                                 : English
Default                                  : Yes
Forced                                   : No
Color range                              : Limited
Color primaries                          : BT.709
Transfer characteristics                 : BT.709
Matrix coefficients                      : BT.709

Audio #1
ID                                       : 2
Format                                   : AC-3
Format/Info                              : Audio Coding 3
Commercial name                          : Dolby Digital
Codec ID                                 : A_AC3
Duration                                 : 1 h 47 min
Bit rate mode                            : Constant
Bit rate                                 : 640 kb/s
Channel(s)                               : 6 channels
Channel layout                           : L R C LFE Ls Rs
Sampling rate                            : 48.0 kHz
Frame rate                               : 31.250 FPS (1536 SPF)
Bit depth                                : 16 bits
Compression mode                         : Lossy
Stream size                              : 494 MiB (7%)
Title                                    : ПД - Blu-Ray
Language                                 : Ukrainian
Service kind                             : Complete Main
Default                                  : Yes
Forced                                   : Yes

Audio #2
ID                                       : 3
Format                                   : AC-3
Format/Info                              : Audio Coding 3
Commercial name                          : Dolby Digital
Codec ID                                 : A_AC3
Duration                                 : 1 h 47 min
Bit rate mode                            : Constant
Bit rate                                 : 640 kb/s
Channel(s)                               : 6 channels
Channel layout                           : L R C LFE Ls Rs
Sampling rate                            : 48.0 kHz
Frame rate                               : 31.250 FPS (1536 SPF)
Bit depth                                : 16 bits
Compression mode                         : Lossy
Stream size                              : 494 MiB (7%)
Title                                    : Original
Language                                 : English
Service kind                             : Complete Main
Default                                  : No
Forced                                   : No

Text #1
ID                                       : 4
Format                                   : UTF-8
Codec ID                                 : S_TEXT/UTF8
Codec ID/Info                            : UTF-8 Plain Text
Duration                                 : 1 h 39 min
Bit rate                                 : 13 b/s
Count of elements                        : 155
Stream size                              : 10.0 KiB (0%)
Title                                    : Forced
Language                                 : Ukrainian
Default                                  : Yes
Forced                                   : Yes

Text #2
ID                                       : 5
Format                                   : UTF-8
Codec ID                                 : S_TEXT/UTF8
Codec ID/Info                            : UTF-8 Plain Text
Duration                                 : 1 h 43 min
Bit rate                                 : 85 b/s
Count of elements                        : 1653
Stream size                              : 64.7 KiB (0%)
Title                                    : Full
Language                                 : English
Default                                  : No
Forced                                   : No

Menu
00:00:00.000                             : :1. Not Gonna Happen (Credits)
00:03:43.390                             : :2. Mature Friends
00:11:58.801                             : :3. Is He All There?
00:16:53.971                             : :4. Letting the Dogs Out
00:23:06.093                             : :5. Wolf Pack
00:27:25.310                             : :6. Not-Good
00:33:39.643                             : :7. Which Part Is Fun?
00:38:43.321                             : :8. Hospital Visit
00:41:43.543                             : :9. Here Bums the Groom
00:44:57.486                             : :10. Start the Tractor
00:48:12.181                             : :11. Loserville
00:52:55.964                             : :12. Target Practice
00:57:29.363                             : :13. Revelations by the Trunkload
01:03:09.160                             : :14. That Was Mike Tyson
01:06:29.986                             : :15. What do Tigers Dream Of?
01:11:44.133                             : :16. On Camera
01:14:13.866                             : :17. Lucky Charm
01:18:48.307                             : :18. All in the Cards
01:22:39.955                             : :19. Mixed Up the Bags
01:28:56.039                             : :20. Doug's Location
01:32:05.937                             : :21. Making Their Date
01:36:37.500                             : :22. Marriage Vow
01:39:04.063                             : :23. Not How This Works
01:43:00.007                             : :24. Evidence and End Credits
Світлини



2. Похмілля 2: з Вегаса до Бангкока / The Hangover Part II (2011) 1080p H.265 Ukr/Eng | Sub Eng
Похмілля 2: з Вегаса до Бангкока / The Hangover Part II (2011) 1080p H.265 Ukr/Eng | Sub Eng

Похмілля. Трилогія / The Hangover. Trilogy (2009/2011/2013) 1080p H.265 Ukr/Eng | Sub Eng


Жанр: комедія
Країна: США
Кінокомпанія: Warner Bros. Pictures,Legendary Pictures, Green Hat Films, Living Films
Режисер: Тод Філіпс (Todd Phillips)
Актори: Бредлі Купер , Ед Хелмс , Зак Галіфіанакіс , Джемі Чунг , Майк Тайсон , Джефрі Тембор , Пол Джаматті , Кен Жонг , Джастін Барта , Олександра Баррезі

Сюжет:
Продовження суперуспішної комедії про пригоди компанії чоловіків, які настільки перебрали з алкоголем та наркотиками, що на ранок не могли нічого пригадати. Враховуючи реакцію глядачів автори не стали майже нічого змінювати - такий самий похмільний ранок, знову жодних спогадів про нічні пригоди і вкотре розбирання цього сплутаного клубка в зворотному порядку, аби зрозуміти, що ж вони знову накоїли. Єдина відмінність в місці дії, яким тепер стає Таїланд, а отже на героїв чекають дешеві татуювання, трансвестити і купа екзотики...

Тривалість: 01:41:48
Якість:
Відео:
кодек: H.265 (HEVC)
розмір кадру: 1920 x 800
бітрейт: 6 447 кб/с
бітова глибина: 10 біт
Увага! Перед завантаженням переконайтесь, що ваш пристрій відтворення (та/або ПЗ) підтримує H.265 (HEVC)

Аудіо # 1:
мова: українська
переклад: професійний дубльований
кодек: AC-3 5.1
бітрейт: 640 кб/с

Аудіо # 2:
мова: англійська
переклад: оригінал
кодек: AC-3 5.1
бітрейт: 640 кб/с

Субтитри # 1:
мова: англійська (Full),
тип: програмні (м'які)
формат: *.srt


Info
Код:
General
Unique ID                                : 175348851368006372586341536266947800011 (0x83EAF5D9EA0150E942FDA08B8EBE2BCB)
Complete name                            : F:\Video\The Hangover. Trilogy (2009-2013) 1080p H.265 [UKR_ENG] [Hurtom]\2. The Hangover. Part II (2011) 1080p H.265 [UKR_ENG] [Hurtom].
Format                                   :
Format version                           : Version 4 / Version 2
File size                                : 5.50 GiB
Duration                                 : 1 h 41 min
Overall bit rate                         : 7 729 kb/s
Movie name                               : The Hangover. Part II (2011)
Encoded date                             : UTC 2019-03-04 11:03:43
Writing application                      : v20.0.0 ('I Am The Sun') 64-bit
Writing library                          : libebml v1.3.5 + v1.4.8
Cover                                    : Yes
Attachments                              : Cover.jpg

Video
ID                                       : 1
Format                                   : HEVC
Format/Info                              : High Efficiency Video Coding
Format profile                           : Main [email protected]@High
Codec ID                                 : V_MPEGH/ISO/HEVC
Duration                                 : 1 h 41 min
Bit rate                                 : 6 447 kb/s
Width                                    : 1 920 pixels
Height                                   : 800 pixels
Display aspect ratio                     : 2.40:1
Frame rate mode                          : Constant
Frame rate                               : 23.976 (24000/1001) FPS
Color space                              : YUV
Chroma subsampling                       : 4:2:0
Bit depth                                : 10 bits
Bits/(Pixel*Frame)                       : 0.175
Stream size                              : 4.58 GiB (83%)
Title                                    : The Hangover. Part II (2011)
Writing library                          : x265 2.9+9-f74003e88622:[Windows][GCC 8.2.0][64 bit] 10bit
Encoding settings                        : cpuid=1049583 / frame-threads=5 / numa-pools=4 / wpp / no-pmode / no-pme / no-psnr / no-ssim / log-level=3 / input-csp=1 / input-res=1920x800 / interlace=0 / total-frames=0 / level-idc=41 / high-tier=1 / uhd-bd=0 / ref=5 / allow-non-conformance / no-repeat-headers / annexb / no-aud / no-hrd / info / hash=0 / no-temporal-layers / open-gop / min-keyint=24 / keyint=240 / gop-lookahead=0 / bframes=16 / b-adapt=2 / b-pyramid / bframe-bias=0 / rc-lookahead=40 / lookahead-slices=5 / scenecut=40 / radl=0 / no-intra-refresh / ctu=64 / min-cu-size=8 / rect / no-amp / max-tu-size=32 / tu-inter-depth=1 / tu-intra-depth=1 / limit-tu=0 / rdoq-level=0 / dynamic-rd=0.00 / no-ssim-rd / signhide / no-tskip / nr-intra=0 / nr-inter=0 / no-constrained-intra / strong-intra-smoothing / max-merge=2 / limit-refs=3 / no-limit-modes / me=3 / subme=7 / merange=57 / temporal-mvp / weightp / no-weightb / no-analyze-src-pics / deblock=-3:-3 / no-sao / no-sao-non-deblock / rd=4 / no-early-skip / rskip / no-fast-intra / no-tskip-fast / no-cu-lossless / no-b-intra / no-splitrd-skip / rdpenalty=0 / psy-rd=2.00 / psy-rdoq=0.00 / no-rd-refine / no-lossless / cbqpoffs=0 / crqpoffs=0 / rc=crf / crf=18.0 / qcomp=0.60 / qpstep=4 / stats-write=0 / stats-read=0 / vbv-maxrate=50000 / vbv-bufsize=50000 / vbv-init=0.9 / crf-max=0.0 / crf-min=0.0 / ipratio=1.40 / pbratio=1.30 / aq-mode=1 / aq-strength=1.00 / cutree / zone-count=0 / no-strict-cbr / qg-size=32 / no-rc-grain / qpmax=69 / qpmin=0 / no-const-vbv / sar=1 / overscan=0 / videoformat=5 / range=0 / colorprim=1 / transfer=1 / colormatrix=1 / chromaloc=0 / display-window=0 / max-cll=0,0 / min-luma=0 / max-luma=1023 / log2-max-poc-lsb=8 / vui-timing-info / vui-hrd-info / slices=1 / no-opt-qp-pps / no-opt-ref-list-length-pps / no-multi-pass-opt-rps / scenecut-bias=0.05 / no-opt-cu-delta-qp / no-aq-motion / no-hdr / no-hdr-opt / no-dhdr10-opt / no-idr-recovery-sei / analysis-reuse-level=5 / scale-factor=0 / refine-intra=0 / refine-inter=0 / refine-mv=0 / no-limit-sao / ctu-info=0 / no-lowpass-dct / refine-mv-type=0 / copy-pic=1 / max-ausize-factor=1.0 / no-dynamic-refine / no-single-sei
Language                                 : English
Default                                  : Yes
Forced                                   : No
Color range                              : Limited
Color primaries                          : BT.709
Transfer characteristics                 : BT.709
Matrix coefficients                      : BT.709

Audio #1
ID                                       : 2
Format                                   : AC-3
Format/Info                              : Audio Coding 3
Codec ID                                 : A_AC3
Duration                                 : 1 h 41 min
Bit rate mode                            : Constant
Bit rate                                 : 640 kb/s
Channel(s)                               : 6 channels
Channel positions                        : Front: L C R, Side: L R, LFE
Sampling rate                            : 48.0 kHz
Frame rate                               : 31.250 FPS (1536 SPF)
Bit depth                                : 16 bits
Compression mode                         : Lossy
Stream size                              : 466 MiB (8%)
Title                                    : ПД - Blu-Ray
Language                                 : Ukrainian
Service kind                             : Complete Main
Default                                  : Yes
Forced                                   : Yes

Audio #2
ID                                       : 3
Format                                   : AC-3
Format/Info                              : Audio Coding 3
Codec ID                                 : A_AC3
Duration                                 : 1 h 41 min
Bit rate mode                            : Constant
Bit rate                                 : 640 kb/s
Channel(s)                               : 6 channels
Channel positions                        : Front: L C R, Side: L R, LFE
Sampling rate                            : 48.0 kHz
Frame rate                               : 31.250 FPS (1536 SPF)
Bit depth                                : 16 bits
Compression mode                         : Lossy
Stream size                              : 466 MiB (8%)
Title                                    : Original
Language                                 : English
Service kind                             : Complete Main
Default                                  : No
Forced                                   : No

Text
ID                                       : 4
Format                                   : UTF-8
Codec ID                                 : S_TEXT/UTF8
Codec ID/Info                            : UTF-8 Plain Text
Duration                                 : 1 h 40 min
Bit rate                                 : 75 b/s
Count of elements                        : 1675
Stream size                              : 55.5 KiB (0%)
Title                                    : Full
Language                                 : English
Default                                  : No
Forced                                   : No

Menu
00:00:00.000                             : :00:00:00.000
00:09:00.081                             : :00:09:00.081
00:17:02.813                             : :00:17:02.813
00:24:20.542                             : :00:24:20.542
00:34:00.413                             : :00:34:00.413
00:44:21.993                             : :00:44:21.993
00:54:58.545                             : :00:54:58.545
01:04:56.267                             : :01:04:56.267
01:13:42.918                             : :01:13:42.918
01:23:35.302                             : :01:23:35.302
01:33:01.576                             : :01:33:01.576
01:37:07.113                             : :01:37:07.113
Світлини



3. Похмілля: Частина 3 / The Hangover Part III (2013) 1080p H.265 Ukr/Eng | Sub Ukr/Eng
Похмілля: Частина 3 / The Hangover Part III (2013) 1080p H.265 Ukr/Eng | Sub Ukr/Eng

Похмілля. Трилогія / The Hangover. Trilogy (2009/2011/2013) 1080p H.265 Ukr/Eng | Sub Eng


Жанр: комедія
Країна: США
Кінокомпанія: Warner Brothers
Режисер: Тод Філіпс
Актори: Бредлі Купер, Ед Хелмс, Зак Галіфіанакіс, Хезер Грехем, Мелісса МакКарті, Джемі Чунг, Джон Гудман, Кен Жонг, Джастін Барта

Сюжет:
Продовження безбашенних пригод вовчої зграї. Цього разу хлопців очікують не менш божевільні пригоди. У Алана помирає батько, що вводить його в ступор, у наслідку якого він потрапляє в психіатричну лікарню .. Щоб допомогти своєму товаришеві, Стю і Філ вирішують викрасти його. Цього разу ніякого весілля, тільки божевільні дорожні пригоди. Під час звільнення Філа, пропадає інший їхній друг, Даг, якого, як виявилося, забрали гангстери. Впоратися з ними вовчій зграї допоможуть не хто інші, як старі друзі!

Тривалість: 01:40:08
Якість:
Відео:
кодек: H.265 (HEVC)
розмір кадру: 1920 x 800
бітрейт: 7 375 кб/с
бітова глибина: 10 біт
Увага! Перед завантаженням переконайтесь, що ваш пристрій відтворення (та/або ПЗ) підтримує H.265 (HEVC)

Аудіо # 1:
мова: українська
переклад: професійний дубльований
кодек: AC-3 5.1
бітрейт: 640 кб/с

Аудіо # 2:
мова: англійська
переклад: оригінал
кодек: AC-3 5.1
бітрейт: 640 кб/с

Субтитри # 1:
мова: українська (Forced),
тип: програмні (м'які)
формат: *.srt

Субтитри # 2:
мова: українська (Full),
тип: програмні (м'які)
формат: *.srt

Субтитри # 3:
мова: англійська (Full),
тип: програмні (м'які)
формат: *.srt


Info
Код:
General
Unique ID                                : 228758840483325865336533909249947717667 (0xAC19599FB21DD5B1BC42C8185C4DD023)
Complete name                            : F:\Video\The Hangover. Trilogy (2009-2013) 1080p H.265 [UKR_ENG] [Hurtom]\3. The Hangover. Part III (2013) 1080p H.265 [UKR_ENG] [Hurtom].
Format                                   :
Format version                           : Version 4 / Version 2
File size                                : 6.06 GiB
Duration                                 : 1 h 40 min
Overall bit rate                         : 8 656 kb/s
Movie name                               : The Hangover Part III (2013)
Encoded date                             : UTC 2019-03-13 07:41:41
Writing application                      : v20.0.0 ('I Am The Sun') 64-bit
Writing library                          : libebml v1.3.5 + v1.4.8
Cover                                    : Yes
Attachments                              : Cover.jpg

Video
ID                                       : 1
Format                                   : HEVC
Format/Info                              : High Efficiency Video Coding
Format profile                           : Main [email protected]@High
Codec ID                                 : V_MPEGH/ISO/HEVC
Duration                                 : 1 h 40 min
Bit rate                                 : 7 374 kb/s
Width                                    : 1 920 pixels
Height                                   : 800 pixels
Display aspect ratio                     : 2.40:1
Frame rate mode                          : Constant
Frame rate                               : 23.976 (24000/1001) FPS
Color space                              : YUV
Chroma subsampling                       : 4:2:0
Bit depth                                : 10 bits
Bits/(Pixel*Frame)                       : 0.200
Stream size                              : 5.16 GiB (85%)
Title                                    : The Hangover Part III (2013)
Writing library                          : x265 2.9+9-f74003e88622:[Windows][GCC 8.2.0][64 bit] 10bit
Encoding settings                        : cpuid=1049583 / frame-threads=5 / numa-pools=4 / wpp / no-pmode / no-pme / no-psnr / no-ssim / log-level=3 / input-csp=1 / input-res=1920x800 / interlace=0 / total-frames=0 / level-idc=41 / high-tier=1 / uhd-bd=0 / ref=5 / allow-non-conformance / no-repeat-headers / annexb / no-aud / no-hrd / info / hash=0 / no-temporal-layers / open-gop / min-keyint=24 / keyint=240 / gop-lookahead=0 / bframes=16 / b-adapt=2 / b-pyramid / bframe-bias=0 / rc-lookahead=40 / lookahead-slices=5 / scenecut=40 / radl=0 / no-intra-refresh / ctu=64 / min-cu-size=8 / rect / no-amp / max-tu-size=32 / tu-inter-depth=1 / tu-intra-depth=1 / limit-tu=0 / rdoq-level=0 / dynamic-rd=0.00 / no-ssim-rd / signhide / no-tskip / nr-intra=0 / nr-inter=0 / no-constrained-intra / strong-intra-smoothing / max-merge=2 / limit-refs=3 / no-limit-modes / me=3 / subme=7 / merange=57 / temporal-mvp / weightp / no-weightb / no-analyze-src-pics / deblock=-3:-3 / no-sao / no-sao-non-deblock / rd=4 / no-early-skip / rskip / no-fast-intra / no-tskip-fast / no-cu-lossless / no-b-intra / no-splitrd-skip / rdpenalty=0 / psy-rd=2.00 / psy-rdoq=0.00 / no-rd-refine / no-lossless / cbqpoffs=0 / crqpoffs=0 / rc=crf / crf=18.0 / qcomp=0.60 / qpstep=4 / stats-write=0 / stats-read=0 / vbv-maxrate=50000 / vbv-bufsize=50000 / vbv-init=0.9 / crf-max=0.0 / crf-min=0.0 / ipratio=1.40 / pbratio=1.30 / aq-mode=1 / aq-strength=1.00 / cutree / zone-count=0 / no-strict-cbr / qg-size=32 / no-rc-grain / qpmax=69 / qpmin=0 / no-const-vbv / sar=1 / overscan=0 / videoformat=5 / range=0 / colorprim=1 / transfer=1 / colormatrix=1 / chromaloc=0 / display-window=0 / max-cll=0,0 / min-luma=0 / max-luma=1023 / log2-max-poc-lsb=8 / vui-timing-info / vui-hrd-info / slices=1 / no-opt-qp-pps / no-opt-ref-list-length-pps / no-multi-pass-opt-rps / scenecut-bias=0.05 / no-opt-cu-delta-qp / no-aq-motion / no-hdr / no-hdr-opt / no-dhdr10-opt / no-idr-recovery-sei / analysis-reuse-level=5 / scale-factor=0 / refine-intra=0 / refine-inter=0 / refine-mv=0 / no-limit-sao / ctu-info=0 / no-lowpass-dct / refine-mv-type=0 / copy-pic=1 / max-ausize-factor=1.0 / no-dynamic-refine / no-single-sei
Language                                 : English
Default                                  : Yes
Forced                                   : No
Color range                              : Limited
Color primaries                          : BT.709
Transfer characteristics                 : BT.709
Matrix coefficients                      : BT.709

Audio #1
ID                                       : 2
Format                                   : AC-3
Format/Info                              : Audio Coding 3
Codec ID                                 : A_AC3
Duration                                 : 1 h 40 min
Bit rate mode                            : Constant
Bit rate                                 : 640 kb/s
Channel(s)                               : 6 channels
Channel positions                        : Front: L C R, Side: L R, LFE
Sampling rate                            : 48.0 kHz
Frame rate                               : 31.250 FPS (1536 SPF)
Bit depth                                : 16 bits
Compression mode                         : Lossy
Stream size                              : 458 MiB (7%)
Title                                    : ПД - Blu-Ray CEE @ 5.1 @ 640 kbps
Language                                 : Ukrainian
Service kind                             : Complete Main
Default                                  : Yes
Forced                                   : Yes

Audio #2
ID                                       : 3
Format                                   : AC-3
Format/Info                              : Audio Coding 3
Codec ID                                 : A_AC3
Duration                                 : 1 h 40 min
Bit rate mode                            : Constant
Bit rate                                 : 640 kb/s
Channel(s)                               : 6 channels
Channel positions                        : Front: L C R, Side: L R, LFE
Sampling rate                            : 48.0 kHz
Frame rate                               : 31.250 FPS (1536 SPF)
Bit depth                                : 16 bits
Compression mode                         : Lossy
Stream size                              : 458 MiB (7%)
Title                                    : Original
Language                                 : English
Service kind                             : Complete Main
Default                                  : No
Forced                                   : No

Text #1
ID                                       : 4
Format                                   : UTF-8
Codec ID                                 : S_TEXT/UTF8
Codec ID/Info                            : UTF-8 Plain Text
Duration                                 : 1 h 34 min
Bit rate                                 : 1 b/s
Count of elements                        : 32
Stream size                              : 1.22 KiB (0%)
Title                                    : Forced
Language                                 : Ukrainian
Default                                  : Yes
Forced                                   : Yes

Text #2
ID                                       : 5
Format                                   : UTF-8
Codec ID                                 : S_TEXT/UTF8
Codec ID/Info                            : UTF-8 Plain Text
Duration                                 : 1 h 36 min
Bit rate                                 : 91 b/s
Count of elements                        : 1385
Stream size                              : 64.8 KiB (0%)
Title                                    : Full
Language                                 : Ukrainian
Default                                  : No
Forced                                   : No

Text #3
ID                                       : 6
Format                                   : UTF-8
Codec ID                                 : S_TEXT/UTF8
Codec ID/Info                            : UTF-8 Plain Text
Duration                                 : 1 h 38 min
Bit rate                                 : 60 b/s
Count of elements                        : 1522
Stream size                              : 43.8 KiB (0%)
Title                                    : Full
Language                                 : English
Default                                  : No
Forced                                   : No

Menu
00:00:00.000                             : en:00:00:00.000
00:10:49.983                             : en:00:10:49.983
00:17:47.692                             : en:00:17:47.692
00:26:16.992                             : en:00:26:16.992
00:37:56.858                             : en:00:37:56.858
00:47:01.736                             : en:00:47:01.736
00:55:08.680                             : en:00:55:08.680
01:06:09.632                             : en:01:06:09.632
01:19:41.735                             : en:01:19:41.735
01:27:44.843                             : en:01:27:44.843
01:34:53.021                             : en:01:34:53.021
Світлини





Джерело: &
Особиста оцінка: 8 - мені сподобалося


Бронзовий реліз (на рейтинг впливає 75% завантаженого)
 Трекер:    Зареєстрований   

Завантажити / скачати фільм українською



відео для новачків



 Зареєстрований:   2019-03-20 11:58
 Розмір:   24.24 GB 
 Оцінка фільму:   10/10 (Голосів: 8)
   
11FrYkT 
Модератор відео


З нами з: 20.02.11
Востаннє: 20.04.19
Повідомлень: 5794

2019-03-16 14:07  
-Star-Lord- написано:

Аудіо # 1:
мова: українська
переклад: професійний дубльований
кодек: AC-3 5.1
бітрейт: 384 кб/с

є ж 640, замініть

-Star-Lord- 
VIP


З нами з: 09.08.18
Востаннє: 19.04.19
Повідомлень: 736

2019-03-16 14:14  
11FrYkT
Не бачив такої до розширеної версії.

11FrYkT 
Модератор відео


З нами з: 20.02.11
Востаннє: 20.04.19
Повідомлень: 5794

2019-03-16 14:17  
-Star-Lord- 
VIP


З нами з: 09.08.18
Востаннє: 19.04.19
Повідомлень: 736

2019-03-16 14:58  
11FrYkT
Дякую! Заміню.

-Star-Lord- 
VIP


З нами з: 09.08.18
Востаннє: 19.04.19
Повідомлень: 736

2019-03-20 11:48  
Додав театральну версія першого фільму та оновив доріжки в розширеній версії на кращі.
bogdan8249 
Відео Гуртом - фільмокрай
Відео Гуртом - фільмокрай


З нами з: 09.08.08
Востаннє: 19.04.19
Повідомлень: 1214

2019-03-23 21:56  
Навіщо театральна, коли є розширена?
-Star-Lord- 
VIP


З нами з: 09.08.18
Востаннє: 19.04.19
Повідомлень: 736

2019-03-23 22:16  
bogdan8249 написано:
Навіщо театральна, коли є розширена?

В розширеній є місця без перекладу, можливо не всім таке підходить.
+ можна завантажувати не всі файли з торента.

Ваш часовий пояс: GMT + 2 Години

Нова тема   Відповісти