Людина-павук: Навколо всесвіту / Spider-Man: Into the Spider-Verse (2018) 1080p H.265 Ukr/Eng | Sub Ukr/Eng

Нові коментарі

Нова тема   Відповісти
Автор Повідомлення
Anonymous 







2019-03-15 11:31  
Людина-павук: Навколо всесвіту / Spider-Man: Into the Spider-Verse (2018) 1080p H.265 Ukr/Eng | Sub Ukr/Eng

Людина-павук: Навколо всесвіту / Spider-Man: Into the Spider-Verse (2018) 1080p H.265 Ukr/Eng | Sub Ukr/Eng


Жанр: бойовик, комедія, мультфільм, пригоди, сімейний, фантастика
Країна: США
Кінокомпанія: Columbia Pictures, Marvel Entertainment, Sony Pictures Animation
Режисер: Пітер Ремсі, Боб Персічетті, Родні Ротман
Ролі озвучують: Шамеік Мур, Джейк Джонсон, Гейлі Стайнфелд, Махершала Алі, Брайан Тайрі Генрі. Лілі Томлін, Лорен Велес, Зої Кравіц, Джон Малені, Кіміко Гленн

Сюжет:
Культовий супергерой відтепер у анімації нового покоління! Підліток з Нью-Йорка живе у світі безмежних можливостей Людини-павука, де костюм супергероя носить не лише він.

Тривалість: 01:56:50
Якість:
Відео:
кодек: H.265 (HEVC)
розмір кадру: 1920 x 804
бітрейт: 8 701 кб/с
бітова глибина: 10 біт
Увага! Перед завантаженням переконайтесь, що ваш пристрій відтворення (та/або ПЗ) підтримує H.265 (HEVC)

Аудіо # 1:
мова: українська
переклад: професійний дубльований
кодек: AC-3 5.1
бітрейт: 640 кб/с

Аудіо # 2:
мова: англійська
переклад: оригінал
кодек: AC-3 5.1
бітрейт: 448 кб/с

Субтитри # 1:
мова: українська (Forced),
тип: програмні (м'які)
формат: *.srt

Субтитри # 2:
мова: українська (Full),
тип: програмні (м'які)
формат: *.srt

Субтитри # 3:
мова: англійська (Full),
тип: програмні (м'які)
формат: *.srt


Info
Код:
General
Unique ID                                : 266068638023208883193507470753044362014 (0xC82AF4AA4543B6E5EF316E854D5FF31E)
Complete name                            : F:\Video\Collection\Mult\Spider-Man Into the Spider-Verse (2018) 1080p H.265 [UKR_ENG] [Hurtom].
Format                                   :
Format version                           : Version 4
File size                                : 7.99 GiB
Duration                                 : 1 h 56 min
Overall bit rate                         : 9 792 kb/s
Movie name                               : Spider-Man Into the Spider-Verse (2018)
Encoded date                             : UTC 2019-04-18 12:26:44
Writing application                      : v20.0.0 ('I Am The Sun') 64-bit
Writing library                          : libebml v1.3.5 + v1.4.8
Cover                                    : Yes
Attachments                              : cover.jpg

Video
ID                                       : 1
Format                                   : HEVC
Format/Info                              : High Efficiency Video Coding
Format profile                           : Main [email protected]@High
Codec ID                                 : V_MPEGH/ISO/HEVC
Duration                                 : 1 h 56 min
Bit rate                                 : 8 701 kb/s
Width                                    : 1 920 pixels
Height                                   : 804 pixels
Display aspect ratio                     : 2.40:1
Frame rate mode                          : Constant
Frame rate                               : 23.976 (24000/1001) FPS
Color space                              : YUV
Chroma subsampling                       : 4:2:0
Bit depth                                : 10 bits
Bits/(Pixel*Frame)                       : 0.235
Stream size                              : 7.10 GiB (89%)
Title                                    : Spider-Man Into the Spider-Verse (2018)
Writing library                          : x265 2.9+9-f74003e88622:[Windows][GCC 8.2.0][64 bit] 10bit
Encoding settings                        : cpuid=1111039 / frame-threads=7 / numa-pools=6 / wpp / no-pmode / no-pme / no-psnr / no-ssim / log-level=3 / input-csp=1 / input-res=1920x804 / interlace=0 / total-frames=0 / level-idc=41 / high-tier=1 / uhd-bd=0 / ref=5 / allow-non-conformance / no-repeat-headers / annexb / no-aud / no-hrd / info / hash=0 / no-temporal-layers / open-gop / min-keyint=24 / keyint=240 / gop-lookahead=0 / bframes=8 / b-adapt=2 / b-pyramid / bframe-bias=0 / rc-lookahead=20 / lookahead-slices=5 / scenecut=40 / radl=0 / no-intra-refresh / ctu=64 / min-cu-size=8 / rect / amp / max-tu-size=32 / tu-inter-depth=1 / tu-intra-depth=1 / limit-tu=0 / rdoq-level=0 / dynamic-rd=0.00 / no-ssim-rd / signhide / no-tskip / nr-intra=0 / nr-inter=0 / no-constrained-intra / no-strong-intra-smoothing / max-merge=2 / limit-refs=3 / no-limit-modes / me=3 / subme=7 / merange=57 / temporal-mvp / weightp / no-weightb / no-analyze-src-pics / deblock=-3:-3 / no-sao / no-sao-non-deblock / rd=3 / no-early-skip / rskip / no-fast-intra / no-tskip-fast / no-cu-lossless / no-b-intra / no-splitrd-skip / rdpenalty=0 / psy-rd=2.00 / psy-rdoq=0.00 / no-rd-refine / no-lossless / cbqpoffs=0 / crqpoffs=0 / rc=crf / crf=17.5 / qcomp=0.70 / qpstep=4 / stats-write=0 / stats-read=0 / vbv-maxrate=50000 / vbv-bufsize=50000 / vbv-init=0.9 / crf-max=30.0 / crf-min=0.0 / ipratio=1.40 / pbratio=1.30 / aq-mode=1 / aq-strength=1.00 / cutree / zone-count=0 / no-strict-cbr / qg-size=32 / no-rc-grain / qpmax=69 / qpmin=0 / no-const-vbv / sar=1 / overscan=0 / videoformat=5 / range=0 / colorprim=1 / transfer=1 / colormatrix=1 / chromaloc=0 / display-window=0 / max-cll=0,0 / min-luma=0 / max-luma=1023 / log2-max-poc-lsb=8 / vui-timing-info / vui-hrd-info / slices=1 / no-opt-qp-pps / no-opt-ref-list-length-pps / no-multi-pass-opt-rps / scenecut-bias=0.05 / no-opt-cu-delta-qp / no-aq-motion / no-hdr / no-hdr-opt / no-dhdr10-opt / no-idr-recovery-sei / analysis-reuse-level=5 / scale-factor=0 / refine-intra=0 / refine-inter=0 / refine-mv=0 / no-limit-sao / ctu-info=0 / no-lowpass-dct / refine-mv-type=0 / copy-pic=1 / max-ausize-factor=1.0 / no-dynamic-refine / no-single-sei
Default                                  : Yes
Forced                                   : No
Color range                              : Limited
Color primaries                          : BT.709
Transfer characteristics                 : BT.709
Matrix coefficients                      : BT.709

Audio #1
ID                                       : 2
Format                                   : AC-3
Format/Info                              : Audio Coding 3
Commercial name                          : Dolby Digital
Codec ID                                 : A_AC3
Duration                                 : 1 h 56 min
Bit rate mode                            : Constant
Bit rate                                 : 640 kb/s
Channel(s)                               : 6 channels
Channel layout                           : L R C LFE Ls Rs
Sampling rate                            : 48.0 kHz
Frame rate                               : 31.250 FPS (1536 SPF)
Bit depth                                : 16 bits
Compression mode                         : Lossy
Stream size                              : 535 MiB (7%)
Title                                    : ПД - Blu-Ray - 5.1 @ 640 kbps
Language                                 : Ukrainian
Service kind                             : Complete Main
Default                                  : Yes
Forced                                   : Yes

Audio #2
ID                                       : 3
Format                                   : AC-3
Format/Info                              : Audio Coding 3
Commercial name                          : Dolby Digital
Codec ID                                 : A_AC3
Duration                                 : 1 h 56 min
Bit rate mode                            : Constant
Bit rate                                 : 448 kb/s
Channel(s)                               : 6 channels
Channel layout                           : L R C LFE Ls Rs
Sampling rate                            : 48.0 kHz
Frame rate                               : 31.250 FPS (1536 SPF)
Bit depth                                : 16 bits
Compression mode                         : Lossy
Stream size                              : 374 MiB (5%)
Title                                    : Original - 5.1 @ 448 kbps
Language                                 : English
Service kind                             : Complete Main
Default                                  : No
Forced                                   : No

Text #1
ID                                       : 4
Format                                   : UTF-8
Codec ID                                 : S_TEXT/UTF8
Codec ID/Info                            : UTF-8 Plain Text
Duration                                 : 1 h 55 min
Bit rate                                 : 1 b/s
Count of elements                        : 42
Stream size                              : 1.33 KiB (0%)
Title                                    : Forced
Language                                 : Ukrainian
Default                                  : Yes
Forced                                   : Yes

Text #2
ID                                       : 5
Format                                   : UTF-8
Codec ID                                 : S_TEXT/UTF8
Codec ID/Info                            : UTF-8 Plain Text
Duration                                 : 1 h 55 min
Bit rate                                 : 81 b/s
Count of elements                        : 1468
Stream size                              : 68.9 KiB (0%)
Title                                    : Full
Language                                 : Ukrainian
Default                                  : No
Forced                                   : No

Text #3
ID                                       : 6
Format                                   : UTF-8
Codec ID                                 : S_TEXT/UTF8
Codec ID/Info                            : UTF-8 Plain Text
Duration                                 : 1 h 55 min
Bit rate                                 : 54 b/s
Count of elements                        : 1389
Stream size                              : 46.4 KiB (0%)
Title                                    : Full
Language                                 : English
Default                                  : No
Forced                                   : No

Menu
00:00:00.000                             : en:Chapter 01
00:09:03.793                             : en:Chapter 02
00:14:04.719                             : en:Chapter 03
00:18:51.714                             : en:Chapter 04
00:29:39.027                             : en:Chapter 05
00:34:14.636                             : en:Chapter 06
00:40:34.432                             : en:Chapter 07
00:44:22.827                             : en:Chapter 08
00:48:06.884                             : en:Chapter 09
00:58:45.855                             : en:Chapter 10
01:06:04.460                             : en:Chapter 11
01:09:55.483                             : en:Chapter 12
01:20:00.003                             : en:Chapter 13
01:24:54.923                             : en:Chapter 14
01:33:33.399                             : en:Chapter 15
01:55:26.920                             : en:Chapter 16
Світлини





Підтримати купівлю інших фільмів можна тут.

Подяка пану AngryBirdsUA за доріжку

Джерело: &
Особиста оцінка: 10 - без зайвих вагань рекомендую всім!


 Трекер:    Зареєстрований   

Завантажити / скачати мультфільм українською



відео для новачків



 Зареєстрований:   2019-04-22 11:17
 Розмір:   7.99 GB 
 Оцінка мультфільму:   9.8/10 (Голосів: 24)
   
Інші релізи
Maksimuss 
Новенький


З нами з: 15.07.17
Востаннє: 15.06.19
Повідомлень: 3

2019-03-23 22:06  
Забули згадати про голос Ніколаса Кейджа - Нуар Людина-павук
Anonymous 







2019-04-22 11:18  
Заміна звуку з 2.0 на 5.1. Додав укр. форсовані субтитри.

vash1 
Поважний учасник


З нами з: 16.03.16
Востаннє: 15.06.19
Повідомлень: 196

2019-04-22 23:28  
-Star-Lord- написано:
Заміна звуку з 2.0 на 5.1. Додав укр. форсовані субтитри.

ооо. круто! welcome back!

Anonymous 







2019-04-26 17:12  
vash1 написано:
welcome back!

Дякую)
Тепер релізи виходитимуть набагато рідше, ніж раніше. Задовбався)

Ваш часовий пояс: GMT + 2 Години

Нова тема   Відповісти