Затура / Zathura: A Space Adventure (2005) 1080p H.265 Ukr/Eng | Sub Ukr/Eng

Нові коментарі

Нова тема   Відповісти
Автор Повідомлення
Anonymous 







2019-03-15 10:25  
Затура / Zathura: A Space Adventure (2005) 1080p H.265 Ukr/Eng | Sub Ukr/Eng

Затура / Zathura: A Space Adventure (2005) 1080p H.265 Ukr/Eng | Sub Ukr/Eng


Жанр: екшн, пригодницький, комедія, сімейний, фантастика, фентезі
Країна: США
Кінокомпанія: Columbia Pictures Corporation, Radar Films, Teitler Film
Режисер: Джон Фавро
Актори: Йон Бобо, Джош Хатчерсон, Декс Шепард, Крістен Стюарт, Тім Роббінс, Френк Оз, Джон Олександр, Дерек Мірс, Дуглас Тейт, Джо Букара III, Джефф Вульф

Сюжет:
Брати Волтер і Денні знаходять у підвалі свого старого будинку загадкову гру під назвою «Затура» і в результаті опиняються в космосі. Під час їх фантастичної подорожі вони зустрічаються з астронавтом, потрапляють під метеоритний дощ, протистоять ворожим інопланетянам, схожим на ящірок, стикаються з некерованим роботом і міжгалактичним космічним кораблем. Але найбільша небезпека чекає на них попереду. Якщо вони не встигнуть вчасно закінчити гру і дістатися до планети Затура, то навіки залишаться у відкритому космосі ...

Тривалість: 01:41:20
Якість:
Відео:
кодек: H.265 (HEVC)
розмір кадру: 1920 x 1038
бітрейт: 11 405 кб/с
бітова глибина: 10 біт
Увага! Перед завантаженням переконайтесь, що ваш пристрій відтворення (та/або ПЗ) підтримує H.265 (HEVC)

Аудіо # 1:
мова: українська
переклад: багатоголосий закадровий ,
кодек: AC-3 2.0
бітрейт: 192 кб/с

Аудіо # 2:
мова: англійська
переклад: оригінал
кодек: 5.1
бітрейт: 1510 кб/с

Субтитри # 1:
мова: українська (Full by urij546724),
тип: програмні (м'які)
формат: *.srt

Субтитри # 2:
мова: англійська (Full),
тип: програмні (м'які)
формат: *.srt


Info
Код:
General
Unique ID                                : 323586369635948065902583289649949329833 (0xF37077C77DB9F4BAAB9D1ADBDF5C49A9)
Complete name                            : F:\Video\Zathura A Space Adventure (2005) 1080p H.265 [UKR_ENG] [Hurtom].
Format                                   :
Format version                           : Version 4 / Version 2
File size                                : 9.28 GiB
Duration                                 : 1 h 41 min
Overall bit rate                         : 13.1 Mb/s
Movie name                               : Zathura A Space Adventure (2005)
Encoded date                             : UTC 2019-03-14 07:19:06
Writing application                      : v20.0.0 ('I Am The Sun') 64-bit
Writing library                          : libebml v1.3.5 + v1.4.8
Cover                                    : Yes
Attachments                              : Cover.jpg

Video
ID                                       : 1
Format                                   : HEVC
Format/Info                              : High Efficiency Video Coding
Format profile                           : Main [email protected]@High
Codec ID                                 : V_MPEGH/ISO/HEVC
Duration                                 : 1 h 41 min
Bit rate                                 : 11.4 Mb/s
Width                                    : 1 920 pixels
Height                                   : 1 038 pixels
Display aspect ratio                     : 1.85:1
Frame rate mode                          : Constant
Frame rate                               : 23.976 (24000/1001) FPS
Color space                              : YUV
Chroma subsampling                       : 4:2:0
Bit depth                                : 10 bits
Bits/(Pixel*Frame)                       : 0.239
Stream size                              : 8.07 GiB (87%)
Title                                    : Zathura A Space Adventure (2005)
Writing library                          : x265 2.9+9-f74003e88622:[Windows][GCC 8.2.0][64 bit] 10bit
Encoding settings                        : cpuid=1049583 / frame-threads=5 / numa-pools=4 / wpp / no-pmode / no-pme / no-psnr / no-ssim / log-level=3 / input-csp=1 / input-res=1920x1038 / interlace=0 / total-frames=0 / level-idc=41 / high-tier=1 / uhd-bd=0 / ref=4 / allow-non-conformance / no-repeat-headers / annexb / no-aud / no-hrd / info / hash=0 / no-temporal-layers / open-gop / min-keyint=24 / keyint=240 / gop-lookahead=0 / bframes=14 / b-adapt=2 / b-pyramid / bframe-bias=0 / rc-lookahead=40 / lookahead-slices=6 / scenecut=40 / radl=0 / no-intra-refresh / ctu=32 / min-cu-size=8 / rect / no-amp / max-tu-size=32 / tu-inter-depth=1 / tu-intra-depth=1 / limit-tu=0 / rdoq-level=0 / dynamic-rd=0.00 / no-ssim-rd / signhide / no-tskip / nr-intra=0 / nr-inter=0 / no-constrained-intra / no-strong-intra-smoothing / max-merge=5 / limit-refs=3 / no-limit-modes / me=3 / subme=7 / merange=57 / temporal-mvp / weightp / weightb / no-analyze-src-pics / deblock=-3:-3 / no-sao / no-sao-non-deblock / rd=4 / no-early-skip / no-rskip / no-fast-intra / no-tskip-fast / no-cu-lossless / no-b-intra / no-splitrd-skip / rdpenalty=0 / psy-rd=2.00 / psy-rdoq=0.00 / no-rd-refine / no-lossless / cbqpoffs=0 / crqpoffs=0 / rc=crf / crf=20.0 / qcomp=0.60 / qpstep=4 / stats-write=0 / stats-read=0 / vbv-maxrate=50000 / vbv-bufsize=50000 / vbv-init=0.9 / crf-max=0.0 / crf-min=0.0 / ipratio=1.40 / pbratio=1.30 / aq-mode=3 / aq-strength=1.00 / no-cutree / zone-count=0 / no-strict-cbr / qg-size=32 / no-rc-grain / qpmax=69 / qpmin=0 / no-const-vbv / sar=1 / overscan=0 / videoformat=5 / range=0 / colorprim=1 / transfer=1 / colormatrix=1 / chromaloc=0 / display-window=0 / max-cll=0,0 / min-luma=0 / max-luma=1023 / log2-max-poc-lsb=8 / vui-timing-info / vui-hrd-info / slices=1 / no-opt-qp-pps / no-opt-ref-list-length-pps / no-multi-pass-opt-rps / scenecut-bias=0.05 / no-opt-cu-delta-qp / no-aq-motion / no-hdr / no-hdr-opt / no-dhdr10-opt / no-idr-recovery-sei / analysis-reuse-level=5 / scale-factor=0 / refine-intra=0 / refine-inter=0 / refine-mv=0 / no-limit-sao / ctu-info=0 / no-lowpass-dct / refine-mv-type=0 / copy-pic=1 / max-ausize-factor=1.0 / no-dynamic-refine / no-single-sei
Language                                 : English
Default                                  : Yes
Forced                                   : No
Color range                              : Limited
Color primaries                          : BT.709
Transfer characteristics                 : BT.709
Matrix coefficients                      : BT.709

Audio #1
ID                                       : 2
Format                                   : AC-3
Format/Info                              : Audio Coding 3
Codec ID                                 : A_AC3
Duration                                 : 1 h 41 min
Bit rate mode                            : Constant
Bit rate                                 : 192 kb/s
Channel(s)                               : 2 channels
Channel positions                        : Front: L R
Sampling rate                            : 48.0 kHz
Frame rate                               : 31.250 FPS (1536 SPF)
Bit depth                                : 16 bits
Compression mode                         : Lossy
Stream size                              : 139 MiB (1%)
Title                                    : БЗ - Novy Kanal, Kanal Ukraina
Language                                 : Ukrainian
Service kind                             : Complete Main
Default                                  : Yes
Forced                                   : Yes

Audio #2
ID                                       : 3
Format                                   :
Format/Info                              : Digital Theater Systems
Codec ID                                 : A_DTS
Duration                                 : 1 h 41 min
Bit rate mode                            : Constant
Bit rate                                 : 1 509 kb/s
Channel(s)                               : 6 channels
Channel positions                        : Front: L C R, Side: L R, LFE
Sampling rate                            : 48.0 kHz
Frame rate                               : 93.750 FPS (512 SPF)
Bit depth                                : 24 bits
Compression mode                         : Lossy
Stream size                              : 1.07 GiB (12%)
Title                                    : Original - 5.1 1509 kbps
Language                                 : English
Default                                  : No
Forced                                   : No

Text #1
ID                                       : 4
Format                                   : UTF-8
Codec ID                                 : S_TEXT/UTF8
Codec ID/Info                            : UTF-8 Plain Text
Duration                                 : 1 h 34 min
Bit rate                                 : 59 b/s
Count of elements                        : 955
Stream size                              : 41.1 KiB (0%)
Title                                    : Full by urij546724
Language                                 : Ukrainian
Default                                  : No
Forced                                   : No

Text #2
ID                                       : 5
Format                                   : UTF-8
Codec ID                                 : S_TEXT/UTF8
Codec ID/Info                            : UTF-8 Plain Text
Duration                                 : 1 h 33 min
Bit rate                                 : 42 b/s
Count of elements                        : 956
Stream size                              : 29.1 KiB (0%)
Title                                    : Full
Language                                 : English
Default                                  : No
Forced                                   : No

Menu
00:00:00.000                             : en:00:00:00.000
00:06:10.328                             : en:00:06:10.328
00:13:49.370                             : en:00:13:49.370
00:17:14.575                             : en:00:17:14.575
00:23:54.183                             : en:00:23:54.183
00:27:48.458                             : en:00:27:48.458
00:36:40.073                             : en:00:36:40.073
00:39:49.345                             : en:00:39:49.345
00:44:39.594                             : en:00:44:39.594
00:55:28.408                             : en:00:55:28.408
01:01:04.369                             : en:01:01:04.369
01:05:50.196                             : en:01:05:50.196
01:18:18.819                             : en:01:18:18.819
01:22:22.187                             : en:01:22:22.187
01:26:20.175                             : en:01:26:20.175
01:32:29.294                             : en:01:32:29.294
Світлини





Джерело: &
Особиста оцінка: 0 - не дивився


 Трекер:    Зареєстрований   

Завантажити / скачати фільм українською



відео для новачків



 Зареєстрований:   2019-03-15 10:25
 Розмір:   9.28 GB 
 Оцінка фільму:   10/10 (Голосів: 3)
   
Інші релізи
   Затура / Zathura: A Space Adventure (2005) AVC Ukr/Eng Arsenfpu  5 / 0   2.29 GB   2018-01-23 01:00 
   Затура / Zathura: A Space Adventure (2005) 720p Ukr/Eng | Sub Ukr/Eng igor911  1 / 0   5.72 GB   2015-03-01 15:12 
   Затура / Zathura: A Space Adventure (2005) Ukr/Eng | sub Ukr/Eng urij546724  0 / 0   2.01 GB   2011-02-15 14:49 
omm 
Відео Гуртом - фільмокрай
Відео Гуртом - фільмокрай


З нами з: 12.06.12
Востаннє: 26.01.21
Повідомлень: 2442

2020-05-05 17:08  
На відміну, від "Джуманджі", надто дитячий.. Діти дратують, особливо коли починають сваритись, ще й в цьому озвученні.
Anonymous 







2020-05-05 19:37  
omm написано:
ще й в цьому озвученні.

А є ще якесь?)

omm 
Відео Гуртом - фільмокрай
Відео Гуртом - фільмокрай


З нами з: 12.06.12
Востаннє: 26.01.21
Повідомлень: 2442

2020-05-07 08:43  
Anonymous
на жаль, ні.

Але є хороша альтернатива - оригінал з субтитрами

Ваш часовий пояс: GMT + 2 Години

Нова тема   Відповісти