Мумія: Гробниця Імператора Драконів / The Mummy: Tomb of the Dragon Emperor (2008) Remux 1080p Ukr/Eng | Sub Eng

Нові коментарі

Нова тема   Відповісти
Останній раз роздавалося MakRA (2019-12-15)
Автор Повідомлення
MakRA 
VIP


З нами з: 10.11.18
Востаннє: 15.12.19
Повідомлень: 607

2019-03-14 18:48  
Мумія: Гробниця Імператора Драконів / The Mummy: Tomb of the Dragon Emperor (2008) Remux 1080p Ukr/Eng | Sub Eng

Мумія: Гробниця Імператора Драконів / The Mummy: Tomb of the Dragon Emperor (2008) Remux 1080p Ukr/Eng | Sub Eng

Український постер:



Жанр: екшн, пригодницький, фентезі
Країна: США, КНР, Канада, Німеччина



Кінокомпанія: Universal Pictures, Relativity Media, The Sommers Company, Alphaville Films
Режисер: Роб Коен [Rob Cohen]
Актори: Брендан Фрейзер [Brendan Fraser], Марія Белло [Maria Bello], Джон Ханна [John Hannah], Джет Лі [Jet Li], Мішель Йео [Michelle Yeoh], Люк Форд [Luke Ford], Ізабелла Люн [Isabella Leong], Ентоні Вонг Чау-Санг [Anthony Chau-Sang Wong], Расселл Вонг [Russell Wong].

Сюжет:
Сюжет переноситься з Єгипту до Китаю. Дослідник Рік О'Коннелл повертається, щоб боротися з воскреслим імператором Цинь Ши Хуаном від давньокитайських катакомб до морозних гімалайських висот. У цьому йому допомагають його дорослий син Алекс, дружина Евелін і її брат Джонатан.


Тривалість: 01:51:40
Якість: Remux 1080p
Відео:
кодек:
розмір кадру: 1920 х 1080
бітрейт: 18.5 Мб/с

Аудіо # 1:
мова: українська
переклад: багатоголосий закадровий
кодек: 2.0
бітрейт: 192 кб/с

Аудіо # 2:
мова: англійська
переклад: оригінал
кодек: 5.1
бітрейт: 1 509 кб/с

Аудіо # 3:
мова: англійська
переклад: оригінал
кодек: -MA 5.1
бітрейт: 4 390 кб/с

Аудіо # 4:
мова: англійська
переклад: коментарі режисера Роба Коена
кодек: 2.0
бітрейт: 192 кб/с

Субтитри # 1-2: (Full / Forsed)
мова: англійська
тип: пререндерні
формат: *.pgs
Info
General
Unique ID : 226349436336242933191864183981467867450 (0xAA4950D3E95DF8412153993896B5993A)
Complete name : F:\Фантастика, пригодницькі\The Mummy. Trilogy (1999-2008) Remux 1080p\The Mummy: Tomb of the Dragon Emperor (2008) Remux 1080p Ukr/Eng | Sub Eng [Hurtom].
Format :
Format version : Version 4 / Version 2
File size : 19.3 GiB
Duration : 1 h 51 min
Overall bit rate mode : Variable
Overall bit rate : 24.8 Mb/s
Movie name : Мумія: Гробниця Імператора Драконів / The Mummy: Tomb of the Dragon Emperor (2008) Remux 1080p Ukr/Eng | Sub Eng [Hurtom]
Encoded date : UTC 2019-03-13 21:27:28
Writing application : v25.0.0 ('Prog Noir') 64-bit
Writing library : libebml v1.3.6 + v1.4.9
Attachments : 15.gif

Video
ID : 1
Format : AVC
Format/Info : Advanced Video Codec
Format profile : [email protected]
Format settings, CABAC : Yes
Format settings, RefFrames : 4 frames
Format settings, GOP : M=3, N=12
Codec ID : V_MPEG4/ISO/AVC
Duration : 1 h 51 min
Bit rate mode : Variable
Bit rate : 18.5 Mb/s
Maximum bit rate : 29.0 Mb/s
Width : 1 920 pixels
Height : 1 080 pixels
Display aspect ratio : 16:9
Frame rate mode : Constant
Frame rate : 23.976 (24000/1001) FPS
Color space : YUV
Chroma subsampling : 4:2:0
Bit depth : 8 bits
Scan type : Progressive
Bits/(Pixel*Frame) : 0.371
Stream size : 14.4 GiB (75%)
Title : The Mummy: Tomb of the Dragon Emperor (2008) Remux 1080p Ukr/Eng | Sub Eng [Hurtom]
Language : Ukrainian
Default : Yes
Forced : Yes
Color range : Limited
Color primaries : BT.709
Transfer characteristics : BT.709
Matrix coefficients : BT.709

Audio #1
ID : 2
Format : AC-3
Format/Info : Audio Coding 3
Format settings, Endianness : Big
Codec ID : A_AC3
Duration : 1 h 51 min
Bit rate mode : Constant
Bit rate : 192 kb/s
Channel(s) : 2 channels
Channel positions : Front: L R
Sampling rate : 48.0 kHz
Frame rate : 31.250 FPS (1536 SPF)
Bit depth : 16 bits
Compression mode : Lossy
Delay relative to video : 24 ms
Stream size : 153 MiB (1%)
Title : MVO [УКРАЇНА]
Language : Ukrainian
Service kind : Complete Main
Default : Yes
Forced : Yes

Audio #2
ID : 3
Format :
Format/Info : Digital Theater Systems
Mode : 16
Format settings, Endianness : Big
Codec ID : A_DTS
Duration : 1 h 51 min
Bit rate mode : Constant
Bit rate : 1 509 kb/s
Channel(s) : 6 channels
Channel positions : Front: L C R, Side: L R, LFE
Sampling rate : 48.0 kHz
Frame rate : 93.750 FPS (512 SPF)
Bit depth : 24 bits
Compression mode : Lossy
Delay relative to video : 24 ms
Stream size : 1.18 GiB (6%)
Title : Original
Language : English
Default : No
Forced : No

Audio #3
ID : 4
Format :
Format/Info : Digital Theater Systems
Format profile : MA / Core
Mode : 16
Format settings, Endianness : Big
Codec ID : A_DTS
Duration : 1 h 51 min
Bit rate mode : Variable / Constant
Bit rate : 4 390 kb/s / 1 509 kb/s
Channel(s) : 6 channels
Channel positions : Front: L C R, Side: L R, LFE
Sampling rate : 48.0 kHz
Frame rate : 93.750 FPS (512 SPF)
Bit depth : 24 bits
Compression mode : Lossless / Lossy
Stream size : 3.42 GiB (18%)
Title : Original -HD MA
Language : English
Default : No
Forced : No

Audio #4
ID : 5
Format : AC-3
Format/Info : Audio Coding 3
Mode : Dolby Digital
Format settings, Endianness : Big
Codec ID : A_AC3
Duration : 1 h 51 min
Bit rate mode : Constant
Bit rate : 192 kb/s
Channel(s) : 2 channels
Channel positions : Front: L R
Sampling rate : 48.0 kHz
Frame rate : 31.250 FPS (1536 SPF)
Bit depth : 16 bits
Compression mode : Lossy
Stream size : 153 MiB (1%)
Title : Original | Commentary Director Rob Cohen
Language : English
Service kind : Complete Main
Default : No
Forced : No

Text #1
ID : 6
Format : PGS
Muxing mode : zlib
Codec ID : S_HDMV/PGS
Codec ID/Info : Picture based subtitle format used on BDs/HD-DVDs
Duration : 1 h 40 min
Bit rate : 31.2 kb/s
Count of elements : 2152
Stream size : 22.5 MiB (0%)
Title : Eng (Full)
Language : English
Default : No
Forced : No

Text #2
ID : 7
Format : PGS
Muxing mode : zlib
Codec ID : S_HDMV/PGS
Codec ID/Info : Picture based subtitle format used on BDs/HD-DVDs
Duration : 1 h 40 min
Bit rate : 2 250 b/s
Count of elements : 265
Stream size : 1.61 MiB (0%)
Title : Eng (Forsed)
Language : English
Default : No
Forced : No
Скріншоти
Джерело: &
Велика подяка за синхронізацію українських доріжок п.robotron005'у, за постер - п.Воїн'у.

Особиста оцінка: 10 - без зайвих вагань рекомендую всім!





Золотий реліз (завантажене не впливає на рейтинг)
 Трекер:    Зареєстрований   

Завантажити / скачати фільм українською



відео для новачків



 Зареєстрований:   2019-03-14 18:48
 Розмір:   19.32 GB 
 Оцінка фільму:   7.7/10 (Голосів: 7)
   
Ваш часовий пояс: GMT + 2 Години

Нова тема   Відповісти