Марія — королева Шотландії / Mary Queen of Scots (2018) BRemux 1080p Ukr/Eng |Sub Ukr/Eng

Нові коментарі

Нова тема   Відповісти
Автор Повідомлення
kryk-v.ya. 
VIP


З нами з: 14.02.14
Востаннє: 12.11.19
Повідомлень: 1676

2019-03-14 09:57  
Марія — королева Шотландії / Mary Queen of Scots (2018) BRemux 1080p Ukr/Eng |Sub Ukr/Eng

Марія — королева Шотландії / Mary Queen of Scots (2018) BRemux 1080p Ukr/Eng |Sub Ukr/Eng


Жанр: драма, історичний, біографічний
Країна: Велика Британія, США



Кінокомпанія: Universal Pictures, Focus Features, Working Title Films
Режисер: Джозі Рурк
Актори: Марго Роббі, Сірша Ронан, Девід Теннант, Джемма Чан, Гай Пірс, Джо Елвін, Ієн Харт, Джек Лауден, Брендан Койл, Ісмаель Круз

Сюжет:
Королева Франції в шістнадцять років і вдова у вісімнадцять. Її змушували знову вийти заміж, адже жінка одна нічого не зможе досягти в XVI столітті. Але Марія Стюарт вирішила вчинити зовсім інакше – вона повернулася до рідної Шотландії, щоб забрати собі трон. У той же час в Англії помер король, а престол дістався Єлизаветі І. Жінка зараз володіє всією Англією та Шотландією, і не збирається віддавати владу двоюрідній сестрі. Як дві жінки мали таку владу у країні, де всюди було верховенство чоловіків – велика загадка. Їх боротьба за трон увійшла в історію, тому що одна з них заради цієї влади віддала навіть свою голову.


Тривалість: 02:03:55
Якість: Remux 1080p
Відео:
кодек:
розмір кадру: 1920 х 1080
бітрейт: 31,5 Mбіт/с

Аудіо # 1:
мова: українська
переклад: професійний дубльований
кодек: 2.0 (стерео)
бітрейт: 192 кб/с

Аудіо # 2:
мова: англійська
переклад: оригінал
кодек: True-HD 7.1 (Atmos)
бітрейт: 3882 кб/с

Аудіо # 3:
мова: англійська
переклад: коментарі
кодек: 2.0
бітрейт: 192 кб/с

Субтитри:#1-2
мова: українська | (forced, full)
тип: програмні (м'які) | власне редагування
формат: *.srt

Субтитри:#3-4
мова: англійська (full, SDH)
тип: програмні (м'які)
формат: *.srt
Info

General
Unique ID : 8077519043991887000664412596238618165 (0x613AC6FC27DF4A1682616D9C2790E35)
Complete name : E:\Mary Queen of Scots (2018) Remux 1080p.
Format :
Format version : Version 4 / Version 2
File size : 31.0 GiB
Duration : 2 h 5 min
Overall bit rate mode : Variable
Overall bit rate : 35.5 Mb/s
Encoded date : UTC 2019-03-15 11:48:08
Writing application : v25.0.0 ('Prog Noir') 64-bit
Writing library : libebml v1.3.6 + v1.4.9
Cover : Yes
Attachments : cover.jpg

Video
ID : 1
Format : AVC
Format/Info : Advanced Video Codec
Format profile : [email protected]
Format settings : CABAC / 4 Ref Frames
Format settings, CABAC : Yes
Format settings, ReFrames : 4 frames
Codec ID : V_MPEG4/ISO/AVC
Duration : 2 h 3 min
Bit rate mode : Variable
Bit rate : 31.5 Mb/s
Maximum bit rate : 35.0 Mb/s
Width : 1 920 pixels
Height : 1 080 pixels
Display aspect ratio : 16:9
Frame rate mode : Constant
Frame rate : 23.976 (24000/1001) FPS
Color space : YUV
Chroma subsampling : 4:2:0
Bit depth : 8 bits
Scan type : Progressive
Bits/(Pixel*Frame) : 0.633
Stream size : 27.2 GiB (88%)
Default : Yes
Forced : No

Audio #1
ID : 2
Format : AC-3
Format/Info : Audio Coding 3
Commercial name : Dolby Digital
Codec ID : A_AC3
Duration : 2 h 5 min
Bit rate mode : Constant
Bit rate : 192 kb/s
Channel(s) : 2 channels
Channel layout : L R
Sampling rate : 48.0 kHz
Frame rate : 31.250 FPS (1536 SPF)
Bit depth : 16 bits
Compression mode : Lossy
Stream size : 172 MiB (1%)
Title : DUB
Language : Ukrainian
Service kind : Complete Main
Default : Yes
Forced : No

Audio #2
ID : 3
Format : MLP FBA 16-ch
Format/Info : Meridian Lossless Packing FBA with 16-channel presentation
Commercial name : TrueHD with Dolby Atmos
Codec ID : A_TRUEHD
Duration : 2 h 3 min
Bit rate mode : Variable
Bit rate : 3 882 kb/s
Maximum bit rate : 6 444 kb/s
Channel(s) : 8 channels
Channel layout : L R C LFE Ls Rs Lb Rb
Sampling rate : 48.0 kHz
Frame rate : 1 200.000 FPS (40 SPF)
Compression mode : Lossless
Stream size : 3.36 GiB (11%)
Title : Original
Language : English
Default : No
Forced : No
Number of dynamic objects : 11
Bed channel count : 1 channel
Bed channel configuration : LFE

Audio #3
ID : 4
Format : AC-3
Format/Info : Audio Coding 3
Commercial name : Dolby Digital
Codec ID : A_AC3
Duration : 2 h 3 min
Bit rate mode : Constant
Bit rate : 192 kb/s
Channel(s) : 2 channels
Channel layout : L R
Sampling rate : 48.0 kHz
Frame rate : 31.250 FPS (1536 SPF)
Bit depth : 16 bits
Compression mode : Lossy
Stream size : 170 MiB (1%)
Title : Comentar
Language : English
Service kind : Complete Main
Default : No
Forced : No

Text #1
ID : 5
Format : UTF-8
Codec ID : S_TEXT/UTF8
Codec ID/Info : UTF-8 Plain Text
Duration : 1 h 56 min
Bit rate : 2 b/s
Count of elements : 22
Stream size : 1.78 KiB (0%)
Title : forced
Language : Ukrainian
Default : Yes
Forced : No

Text #2
ID : 6
Format : UTF-8
Codec ID : S_TEXT/UTF8
Codec ID/Info : UTF-8 Plain Text
Duration : 1 h 56 min
Bit rate : 74 b/s
Count of elements : 1161
Stream size : 63.1 KiB (0%)
Title : full
Language : Ukrainian
Default : No
Forced : No

Text #3
ID : 7
Format : UTF-8
Codec ID : S_TEXT/UTF8
Codec ID/Info : UTF-8 Plain Text
Duration : 1 h 53 min
Bit rate : 42 b/s
Count of elements : 1127
Stream size : 35.3 KiB (0%)
Title : full
Language : English
Default : No
Forced : No

Text #4
ID : 8
Format : UTF-8
Codec ID : S_TEXT/UTF8
Codec ID/Info : UTF-8 Plain Text
Duration : 1 h 54 min
Bit rate : 47 b/s
Count of elements : 1369
Stream size : 40.1 KiB (0%)
Title : SDH
Language : English
Default : No
Forced : No

Menu
00:00:00.000 : en:00:00:00.000 / en:Глава 01
00:06:10.536 : en:00:06:10.536
00:10:38.678 : en:00:10:38.678
00:16:07.091 : en:00:16:07.091
00:21:06.097 : en:00:21:06.097
00:24:59.205 : en:00:24:59.205
00:30:21.736 : en:00:30:21.736
00:39:02.840 : en:00:39:02.840
00:44:19.739 : en:00:44:19.739
00:51:17.990 : en:00:51:17.990
01:00:02.599 : en:01:00:02.599
01:04:18.855 : en:01:04:18.855
01:12:19.585 : en:01:12:19.585
01:18:06.972 : en:01:18:06.972
01:26:53.625 : en:01:26:53.625
01:31:19.474 : en:01:31:19.474
01:38:32.780 : en:01:38:32.780
01:42:30.185 : en:01:42:30.185
01:51:35.689 : en:01:51:35.689
01:56:53.256 : en:01:56:53.256
Скріншоти




Джерело: &
Особиста оцінка: 10 - без зайвих вагань рекомендую всім!


Золотий реліз (завантажене не впливає на рейтинг)
 Трекер:    Зареєстрований   

Завантажити / скачати фільм українською



відео для новачків



 Зареєстрований:   2019-03-15 16:01
 Розмір:   31 GB 
 Оцінка фільму:   10/10 (Голосів: 11)
   
bot 
робот


З нами з: 30.09.07
Востаннє: 26.05.05
Повідомлень: 22454

2019-03-15 15:04  
Тему перенесено з Анонси релізів до форуму Фільми в HD


kryk-v.ya.

vodoliy76 
Новенький


З нами з: 17.10.10
Востаннє: 25.03.19
Повідомлень: 15

2019-03-16 07:51  
Дякую
Ваш часовий пояс: GMT + 2 Години

Нова тема   Відповісти