Мумія повертається / The Mummy Returns (2001) Remux 1080p 2хUkr/Eng | Sub Eng

Нові коментарі

Нова тема   Відповісти
Автор Повідомлення
MakRA 
VIP


З нами з: 10.11.18
Востаннє: 26.02.21
Повідомлень: 1183

2019-03-13 22:32  
Мумія повертається / The Mummy Returns (2001) Remux 1080p 2хUkr/Eng | Sub Eng

Мумія повертається / The Mummy Returns (2001) Remux 1080p 2хUkr/Eng | Sub Eng

Український постер:



Жанр: екшн, пригодницький, фентезі, комедія, жахи
Країна: США



Кінокомпанія: Universal Pictures, Alphaville Films, Imhotep Productions
Режисер: Стівен Соммерс [Stephen Sommers]
Актори: Брендан Фрейзер [Brendan Fraser], Рейчел Вайс [Rachel Weisz], Арнольд Вослу [Arnold Vosloo], Двейн Джонсон [Dwayne Johnson], Фредді Боас [Freddie Boath], Джон Ханна [John Hannah], Одед Фер [Oded Fehr], Патрісія Веласкес [Patricia Velasquez], Алан Армстронг [Alun Armstrong], Адевале Акіннуойе-Агбадже [Adewale Akinnuoye-Agbaje].

Сюжет:
Минуло десять років...Відважний герой, шукач пригод Рік О'Конелл, тепер багатий, щасливо одружений на прекрасній Евелін і виховує свого восьмирічного сина Алекса.
Але злі сили не дають чарівній родині О'Конеллі насолодитися спокійним життям. Зловісний жрець Імхотеп знову повстав з мертвих! Тепер у Ріка, Евелін і малюка Алекса є всього сім днів, щоб врятувати світ ...

Фільм вже не стільки містичний, скільки комедійно-пригодницький, насичений гумористичним фарсом і сарказмом.


Тривалість: 02:09:32
Якість: Remux 1080p

Відео:
кодек: VC-1
розмір кадру: 1920 х 1080
бітрейт: 21,8 Мб/с

Аудіо # 1:
мова: українська
переклад: професійний дубльований
кодек: 5.1
бітрейт: 384 кб/с

Аудіо # 2:
мова: українська
переклад: багатоголосий закадровий [ICTV] | Студія "ТакТребаПродакшн"
кодек: 5.1
бітрейт: 384 кб/с

Аудіо # 3:
мова: англійська
переклад: оригінал
кодек: 5.1
бітрейт: 384 кб/с

Аудіо # 4:
мова: англійська
переклад: оригінал
кодек: -HD MA 5.1
бітрейт: 4555 кб/с

Аудіо # 5:
мова: англійська
переклад: коментарі режисера / сценариста Стівена Соммерса та продюсера Боба Дюксея
кодек: 2.0
бітрейт: 192 kb/s

Субтитри # 1: (Forced)
мова: українська
тип: пререндерні
формат: *.pgs

Субтитри # 2-3: (Full / Forsed)
мова: англійська
тип: пререндерні
формат: *.pgs
Info

General
Unique ID : 29810388969867820993400297120903908551 (0x166D45A6D81B48A8EA5C89951E7ACCC7)
Complete name : F:\Фантастика, пригодницькі\The Mummy. Trilogy (1999-2008) Remux 1080p\The Mummy Returns (2001) Remux 1080p 2хUkrEng Sub Eng [Hurtom].
Format :
Format version : Version 4 / Version 2
File size : 25.0 GiB
Duration : 2 h 9 min
Overall bit rate : 27.6 Mb/s
Movie name : Мумія повертається / The Mummy Returns (2001) Remux 1080p 2хUkr/Eng | Sub Eng [Hurtom]
Encoded date : UTC 2019-03-13 08:02:56
Writing application : v25.0.0 ('Prog Noir') 64-bit
Writing library : libebml v1.3.6 + v1.4.9

Video
ID : 1
Format : VC-1
Format profile : [email protected]
Codec ID : V_MS/VFW/FOURCC / WVC1
Codec ID/Hint : Microsoft
Duration : 2 h 9 min
Bit rate : 21.8 Mb/s
Width : 1 920 pixels
Height : 1 080 pixels
Display aspect ratio : 16:9
Frame rate mode : Constant
Frame rate : 23.976 (24000/1001) FPS
Color space : YUV
Chroma subsampling : 4:2:0
Bit depth : 8 bits
Scan type : Progressive
Compression mode : Lossy
Bits/(Pixel*Frame) : 0.438
Stream size : 19.7 GiB (79%)
Title : The Mummy Returns (2001) Remux 1080p 2хUkr/Eng | Sub Eng [Hurtom]
Language : Ukrainian
Default : Yes
Forced : Yes

Audio #1
ID : 2
Format : AC-3
Format/Info : Audio Coding 3
Format settings, Endianness : Big
Codec ID : A_AC3
Duration : 2 h 9 min
Bit rate mode : Constant
Bit rate : 384 kb/s
Channel(s) : 6 channels
Channel positions : Front: L C R, Side: L R, LFE
Sampling rate : 48.0 kHz
Frame rate : 31.250 FPS (1536 SPF)
Bit depth : 16 bits
Compression mode : Lossy
Stream size : 356 MiB (1%)
Title : DUB [Новий]
Language : Ukrainian
Service kind : Complete Main
Default : Yes
Forced : Yes

Audio #2
ID : 3
Format : AC-3
Format/Info : Audio Coding 3
Format settings, Endianness : Big
Codec ID : A_AC3
Duration : 2 h 9 min
Bit rate mode : Constant
Bit rate : 384 kb/s
Channel(s) : 6 channels
Channel positions : Front: L C R, Side: L R, LFE
Sampling rate : 48.0 kHz
Frame rate : 31.250 FPS (1536 SPF)
Bit depth : 16 bits
Compression mode : Lossy
Stream size : 356 MiB (1%)
Title : MVO [ICTV] | Студія "ТакТребаПродакшн"
Language : Ukrainian
Service kind : Complete Main
Default : No
Forced : No

Audio #3
ID : 4
Format : AC-3
Format/Info : Audio Coding 3
Format settings, Endianness : Big
Codec ID : A_AC3
Duration : 2 h 9 min
Bit rate mode : Constant
Bit rate : 384 kb/s
Channel(s) : 6 channels
Channel positions : Front: L C R, Side: L R, LFE
Sampling rate : 48.0 kHz
Frame rate : 31.250 FPS (1536 SPF)
Bit depth : 16 bits
Compression mode : Lossy
Stream size : 356 MiB (1%)
Title : Original AC-3
Language : English
Service kind : Complete Main
Default : No
Forced : No

Audio #4
ID : 5
Format :
Format/Info : Digital Theater Systems
Format profile : MA / Core
Mode : 16
Format settings, Endianness : Big
Codec ID : A_DTS
Duration : 2 h 9 min
Bit rate mode : Variable / Constant
Bit rate : 4 555 kb/s / 1 509 kb/s
Channel(s) : 6 channels
Channel positions : Front: L C R, Side: L R, LFE
Sampling rate : 48.0 kHz
Frame rate : 93.750 FPS (512 SPF)
Bit depth : 24 bits
Compression mode : Lossless / Lossy
Delay relative to video : 42 ms
Stream size : 4.12 GiB (16%)
Title : Original -HD MA
Language : English
Default : No
Forced : No

Audio #5
ID : 6
Format : AC-3
Format/Info : Audio Coding 3
Mode : Dolby Digital
Format settings, Endianness : Big
Codec ID : A_AC3
Duration : 2 h 9 min
Bit rate mode : Constant
Bit rate : 192 kb/s
Channel(s) : 2 channels
Channel positions : Front: L R
Sampling rate : 48.0 kHz
Frame rate : 31.250 FPS (1536 SPF)
Bit depth : 16 bits
Compression mode : Lossy
Delay relative to video : 42 ms
Stream size : 178 MiB (1%)
Title : Original | Commentary with Director/Writer Stephen Sommers and Executive Producer/Editor Bob Ducsay
Language : English
Service kind : Complete Main
Default : No
Forced : No

Text #1
ID : 7
Format : PGS
Muxing mode : zlib
Codec ID : S_HDMV/PGS
Codec ID/Info : Picture based subtitle format used on BDs/HD-DVDs
Duration : 1 h 56 min
Bit rate : 1 667 b/s
Count of elements : 150
Stream size : 1.39 MiB (0%)
Title : Ukr (Forsed)
Language : Ukrainian
Default : Yes
Forced : No

Text #2
ID : 8
Format : PGS
Muxing mode : zlib
Codec ID : S_HDMV/PGS
Codec ID/Info : Picture based subtitle format used on BDs/HD-DVDs
Duration : 2 h 6 min
Bit rate : 24.5 kb/s
Count of elements : 2330
Stream size : 22.2 MiB (0%)
Title : Eng (Full)
Language : English
Default : No
Forced : No

Text #3
ID : 9
Format : PGS
Muxing mode : zlib
Codec ID : S_HDMV/PGS
Codec ID/Info : Picture based subtitle format used on BDs/HD-DVDs
Duration : 1 h 20 min
Bit rate : 2 592 b/s
Count of elements : 204
Stream size : 1.49 MiB (0%)
Title : Eng (Forsed)
Language : English
Default : No
Forced : No
Скріншоти
Джерело: &
Велика подяка за синхронізацію українських доріжок п.robotron005'у, за постер - п.Воїн'у.

Особиста оцінка: 10 - без зайвих вагань рекомендую всім!




Золотий реліз (завантажене не впливає на рейтинг)
 Трекер:    Зареєстрований   

Завантажити / скачати фільм українською



відео для новачків



 Зареєстрований:   2019-03-13 22:32
 Розмір:   25.03 GB 
 Оцінка фільму:   9.9/10 (Голосів: 17)
   
Інші релізи
[email protected] 
VIP


З нами з: 24.03.17
Востаннє: 25.02.21
Повідомлень: 677

2021-01-30 23:24  
Фільм не гірший першого, цікавий та позитивний).
Ваш часовий пояс: GMT + 2 Години

Нова тема   Відповісти