Перехрестя / Crossroads (1986) 720p Ukr/Eng

Нові коментарі

Нова тема   Відповісти
Автор Повідомлення
Arch Enemy 
VIP


З нами з: 30.08.12
Востаннє: 19.08.19
Повідомлень: 1689

2019-03-13 21:05  
Перехрестя / Crossroads (1986) 720p Ukr/Eng


Жанр: драма, музика, містика, роман
Країна: США



Кінокомпанія: Columbia Pictures Corporation
Режисер: Волтер Хілл
Актори: Джон Хенкок, Ральф Маккіо, Денніс Ліпскомб, Джо Мортон, Гаррі Кері мол., Джо Сенека, Джемі Ґертц, Роберт Джадд, Стів Вай та інші.

Сюжет:
Молодий музичний талант Юджин мріє про те, що одного разу він стане знаменитим блюз-гітаристом. Єдиний, хто може допомогти йому в цьому, - легенда блюзу Віллі Браун. Так, сам того не підозрюючи, Юджин стає частиною плану старого гітариста з повернення своєї душі, проданої колись дияволу за талант музиканта...


Тривалість: 01:38:49
Якість: 720p

Відео:
кодек:
розмір кадру: 1280х720
бітрейт: 5 436 кбіт/сек.
контейнер:

Аудіо # 1:
мова: українська
озвучення: багатоголосе закадрове
кодек: 5.1
бітрейт: 384 кбіт/сек.

Аудіо # 2:
мова: англійська
озвучення: оригінал
кодек: 5.1
бітрейт: 384 кбіт/сек.
Info
General
Unique ID : 91587881348617938656925264474459244325 (0x44E72F2FCE9FCE0F4E205FCA72EE8725)
Complete name : E:\Films\Crossroads (1986) 720p.
Format :
Format version : Version 4 / Version 2
File size : 4.28 GiB
Duration : 1 h 38 min
Overall bit rate : 6 205 kb/s
Movie name : Crossroads (1986)
Encoded date : UTC 2019-03-15 15:50:03
Writing application : v26.0.0 ('In The Game') 64-bit
Writing library : libebml v1.3.6 + v1.4.9

Video
ID : 1
Format : AVC
Format/Info : Advanced Video Codec
Format profile : [email protected]
Format settings : CABAC / 5 Ref Frames
Format settings, CABAC : Yes
Format settings, ReFrames : 5 frames
Codec ID : V_MPEG4/ISO/AVC
Duration : 1 h 38 min
Bit rate : 5 436 kb/s
Width : 1 280 pixels
Height : 720 pixels
Display aspect ratio : 16:9
Frame rate mode : Constant
Frame rate : 23.976 (24000/1001) FPS
Color space : YUV
Chroma subsampling : 4:2:0
Bit depth : 8 bits
Scan type : Progressive
Bits/(Pixel*Frame) : 0.246
Stream size : 3.75 GiB (88%)
Title : Crossroads (1986)
Writing library : core 65 r999kMod cc51047
Encoding settings : cabac=1 / ref=5 / deblock=1:0:0 / analyse=0x3:0x133 / me=umh / subme=9 / psy_rd=1.0:0.0 / mixed_ref=1 / me_range=16 / chroma_me=1 / trellis=2 / 8x8dct=1 / cqm=0 / deadzone=21,11 / chroma_qp_offset=-2 / threads=2 / thread_queue=2 / nr=0 / decimate=1 / mbaff=0 / bframes=5 / b_pyramid=1 / b_adapt=1 / b_bias=0 / direct=3 / wpredb=1 / keyint=250 / keyint_min=25 / scenecut=40(pre) / rc=2pass / bitrate=5436 / ratetol=1.0 / qcomp=0.60 / qpmin=10 / qpmax=51 / qpstep=4 / cplxblur=20.0 / qblur=0.5 / ip_ratio=1.40 / pb_ratio=1.30 / aq=1:1.00
Language : Russian
Default : Yes
Forced : No

Audio #1
ID : 2
Format : AC-3
Format/Info : Audio Coding 3
Commercial name : Dolby Digital
Codec ID : A_AC3
Duration : 1 h 38 min
Bit rate mode : Constant
Bit rate : 384 kb/s
Channel(s) : 6 channels
Channel layout : L R C LFE Ls Rs
Sampling rate : 48.0 kHz
Frame rate : 31.250 FPS (1536 SPF)
Bit depth : 16 bits
Compression mode : Lossy
Stream size : 271 MiB (6%)
Title : AniUA MVO
Language : Ukrainian
Service kind : Complete Main
Default : Yes
Forced : Yes

Audio #2
ID : 3
Format : AC-3
Format/Info : Audio Coding 3
Commercial name : Dolby Digital
Codec ID : A_AC3
Duration : 1 h 38 min
Bit rate mode : Constant
Bit rate : 384 kb/s
Channel(s) : 6 channels
Channel layout : L R C LFE Ls Rs
Sampling rate : 48.0 kHz
Frame rate : 31.250 FPS (1536 SPF)
Bit depth : 16 bits
Compression mode : Lossy
Stream size : 271 MiB (6%)
Title : Original
Language : English
Service kind : Complete Main
Default : No
Forced : No



Озвучено за фінансової підтримки NemoInFire


Джерело озвучення та релізу: AniUA


Авторський реліз (завантажувати можна без реєстрації)
 Трекер:    Зареєстрований   

Завантажити / скачати фільм українською



відео для новачків



 Зареєстрований:   2019-03-15 19:35
 Розмір:   4.28 GB 
 Оцінка фільму:   10/10 (Голосів: 10)
   
bot 
робот


З нами з: 30.09.07
Востаннє: 26.05.05
Повідомлень: 21807

2019-03-15 19:34  
Тему перенесено з Анонси релізів до форуму Фільми в HD


Arch Enemy

zaika 
VIP


З нами з: 01.07.12
Востаннє: 24.08.19
Повідомлень: 1206

2019-04-05 18:40  
Фантастичний блюз. 10/10
Ваш часовий пояс: GMT + 2 Години

Нова тема   Відповісти