Російська лялька / Матрьошка (Сезон 1, Серії 1-2) / Russian Doll (Season 1, Episodes 1-2) (2019) 720p Eng | sub Ukr

Нові коментарі

Нова тема   Відповісти
Автор Повідомлення
Chupacabr007 
Новенький


З нами з: 07.07.15
Востаннє: 22.03.19
Повідомлень: 20

2019-03-13 12:41  
Російська лялька / Матрьошка (Сезон 1, Серії 1-2) / Russian Doll (Season 1, Episodes 1-2) (2019) 720p Eng | sub Ukr

Російська лялька / Матрьошка (Сезон 1, Серії 1-2) / Russian Doll (Season 1, Episodes 1-2) (2019) 720p Eng | sub Ukr


Жанр: комедія, драма, детектив, фантастика
Країна: США



Кінокомпанія: 3 Arts Entertainment, Jax Media, Netflix
Режисер: Леслі Гедленд, Наташа Ліонн, Джемі Беббіт
Актори: Наташа Ліонн, Грета Лі, Джордж Алой, Елізабет Ешлі, Чарлі Барнет, Ребекка Хендерсон, Джеремі Бобб

Сюжет:
Дівчина на ім'я Надя потрапляє в таємничу часову петлю, яка змушує її неодноразово відвідувати одну і ту ж вечірку в Нью-Йорку і в кінці неї вмирати, прокидаючись вранці неушкодженою.


Тривалість: 00:25:00
Перелік серій
1.Nothing in This World Is Easy
2.The Great Escape
Якість:

Відео:
кодек:
розмір кадру: 1280x720
бітрейт: ~2000 кб/с

Аудіо:
мова: англійська
переклад: оригінал
кодек: 5.1
бітрейт: 640 кб/с

Субтитри:
мова: українська
тип: програмні (м'які)
формат: *.srt
переклад: [SubAutumn]
Скріншоти



Info
General
Complete name : D:\SubAutumn\Russian Doll (Season 1)\Russian.Doll.s01e01.Nothing in This World Is Easy.
Format :
Format version : Version 4 / Version 2
File size : 472 MiB
Duration : 24mn 34s
Overall bit rate mode : Variable
Overall bit rate : 2 688 Kbps
Movie name : Russian.Doll.s01e01.Nothing in This World Is Easy
Encoded date : UTC 2019-03-13 09:54:42
Writing application : v6.5.0 ('Isn't she lovely') built on Oct 20 2013 12:50:05
Writing library : libebml v1.3.0 + v1.4.1

Video
ID : 1
Format : AVC
Format/Info : Advanced Video Codec
Format profile : [email protected]
Format settings, CABAC : Yes
Format settings, ReFrames : 3 frames
Codec ID : V_MPEG4/ISO/AVC
Duration : 24mn 34s
Bit rate mode : Variable
Bit rate : 2 050 Kbps
Maximum bit rate : 3 075 Kbps
Width : 1 280 pixels
Height : 720 pixels
Display aspect ratio : 16:9
Frame rate mode : Constant
Frame rate : 23.976 fps
Color space : YUV
Chroma subsampling : 4:2:0
Bit depth : 8 bits
Scan type : Progressive
Bits/(Pixel*Frame) : 0.093
Stream size : 350 MiB (74%)
Writing library : core 148 r2715 7e75228
Encoding settings : cabac=1 / ref=3 / deblock=1:0:0 / analyse=0x1:0x111 / me=umh / subme=10 / psy=1 / psy_rd=1.00:0.00 / mixed_ref=1 / me_range=24 / chroma_me=1 / trellis=2 / 8x8dct=0 / cqm=0 / deadzone=21,11 / fast_pskip=1 / chroma_qp_offset=-2 / threads=8 / lookahead_threads=1 / sliced_threads=0 / nr=0 / decimate=1 / interlaced=0 / bluray_compat=0 / stitchable=1 / constrained_intra=0 / bframes=2 / b_pyramid=0 / b_adapt=2 / b_bias=0 / direct=3 / weightb=1 / open_gop=0 / weightp=2 / keyint=48 / keyint_min=25 / scenecut=0 / intra_refresh=0 / rc_lookahead=48 / rc=2pass / mbtree=1 / bitrate=2050 / ratetol=1.0 / qcomp=0.50 / qpmin=6 / qpmax=51 / qpstep=4 / cplxblur=20.0 / qblur=0.5 / vbv_maxrate=3075 / vbv_bufsize=4100 / nal_hrd=vbr / filler=0 / ip_ratio=1.40 / aq=1:1.00
Language : English
Default : Yes
Forced : No

Audio
ID : 2
Format : AC-3
Format/Info : Audio Coding 3
Mode extension : CM (complete main)
Format settings, Endianness : Big
Codec ID : A_AC3
Duration : 24mn 34s
Bit rate mode : Constant
Bit rate : 640 Kbps
Channel(s) : 6 channels
Channel positions : Front: L C R, Side: L R, LFE
Sampling rate : 48.0 KHz
Compression mode : Lossy
Stream size : 112 MiB (24%)
Title : Russian.Doll.s01e01.Nothing in This World Is Easy
Language : English
Default : No
Forced : No

Text
ID : 3
Format : UTF-8
Codec ID : S_TEXT/UTF8
Codec ID/Info : UTF-8 Plain Text
Title : Russian.Doll.s01e01.Nothing in This World Is Easy
Language : Ukrainian
Default : Yes
Forced : No
Джерело:


Золотий реліз (завантажене не впливає на рейтинг)
 Трекер:    Зареєстрований   

Завантажити / скачати серіал українською



відео для новачків



 Зареєстрований:   2019-03-18 11:46
 Розмір:   1.02 GB 
 Оцінка серіалу:   6.1/10 (Голосів: 7)
   
leicheman 
Відео Гуртом - підтримка та поширення
Відео Гуртом - підтримка та поширення


З нами з: 03.07.14
Востаннє: 23.03.19
Повідомлень: 3442

2019-03-13 13:07  
а чого не матрьошка?
Russian Doll вони саме так матрьошку називають.

Chupacabr007 
Новенький


З нами з: 07.07.15
Востаннє: 22.03.19
Повідомлень: 20

2019-03-13 13:09  
leicheman
Як у перекладі було таку назву і поставив

lost_in_you 
Свій


З нами з: 17.11.11
Востаннє: 22.03.19
Повідомлень: 86

2019-03-13 16:00  
leicheman тоді вже мотрійка, а не матрьошка
Vitt 
Свій


З нами з: 17.01.11
Востаннє: 23.03.19
Повідомлень: 64

2019-03-13 17:03  
Chupacabr007 написано:
потрапляє в таємничу тимчасову петлю


Гугл-переклад?
рос."временнУю" петлю?

тоді - часову петлю.

Chupacabr007 
Новенький


З нами з: 07.07.15
Востаннє: 22.03.19
Повідомлень: 20

2019-03-13 17:12  
Vitt
Скопіював з сайту кіно-театр, там вже так було. Дякую, що помітили, виправлю.

leicheman 
Відео Гуртом - підтримка та поширення
Відео Гуртом - підтримка та поширення


З нами з: 03.07.14
Востаннє: 23.03.19
Повідомлень: 3442

2019-03-13 17:53  
lost_in_you написано:
тоді вже мотрійка, а не матрьошка

Можна і так. У словниках присутні два варіанти.

tpolit 
VIP


З нами з: 10.01.15
Востаннє: 22.03.19
Повідомлень: 404

2019-03-14 20:20  
Як я і писав раніше, світ зараз явно тащиться від росії, тому і маємо в кожному фільмі отаких от надь та вань з матрьошками.
Chupacabr007 
Новенький


З нами з: 07.07.15
Востаннє: 22.03.19
Повідомлень: 20

2019-03-18 11:49  
Додано 2 серію
Dert 
Частий відвідувач


З нами з: 01.01.09
Востаннє: 21.03.19
Повідомлень: 34

2019-03-18 22:24  
Chupacabr007
Chupacabr007
Цитата:
кіно-театр

то москальський сайт на чолі з першком

don pedro 
Попереджень: 1
Попереджень: 1 


З нами з: 29.06.11
Востаннє: 23.03.19
Повідомлень: 13214

2019-03-21 23:14  
Шикарний серіал з чудовим гумором.
Ваш часовий пояс: GMT + 2 Години

Нова тема   Відповісти