Гультяй / Гульвіса / Le cavaleur (1979) AVC Ukr/Fre

Нові коментарі

Нова тема   Відповісти
Автор Повідомлення
Anonymous 







2019-03-13 03:24  
Гультяй / Гульвіса / Le cavaleur (1979) AVC Ukr/Fre

Гультяй / Гульвіса / Le cavaleur (1979) AVC Ukr/Fre


Жанр: комедія
Країна: Франція



Кінокомпанія: Les Films Ariane, Mondex Films, France 3 (FR 3)
Режисер: Філіп де Брока
Актори: Жан Рошфор, Ніколь Ґарсіа, Даніель Дар'є, Ані Жерардо

Сюжет:
Історія про велелюбного піаніста


Тривалість: 01:37:23
Якість: AVC
Відео:
кодек:
розмір кадру: 960 × 576
бітрейт: 2010 кб/с

Аудіо # 1:
мова: українська
переклад: двоголосий закадровий
кодек: 2.0
бітрейт: 192 кб/с

Аудіо # 2:
мова: французька
переклад: оригінал
кодек: 2.0
бітрейт: 224 кб/с

Джерело озвучення:
КРТ
Info
General
Unique ID : 120826441667194069070154918960666537190 (0x5AE653825F1841A84EA9BE7ED3F86CE6)
Complete name : Le cavaleur (1979) AVC [UKR.FRE] [Hurtom].
Format :
Format version : Version 4
File size : 1.65 GiB
Duration : 1 h 37 min
Overall bit rate : 2 428 kb/s
Movie name : Гультяй (1979)
Encoded date : UTC 2019-03-12 23:40:15
Writing application : v30.1.0 ('Forever And More') 64-bit
Writing library : libebml v1.3.6 + v1.4.9
Cover : Yes
Attachments : cover.jpg

Video
ID : 1
Format : AVC
Format/Info : Advanced Video Codec
Format profile : [email protected]
Format settings : CABAC / 8 Ref Frames
Format settings, CABAC : Yes
Format settings, ReFrames : 8 frames
Codec ID : V_MPEG4/ISO/AVC
Duration : 1 h 37 min
Bit rate : 2 010 kb/s
Width : 960 pixels
Height : 576 pixels
Display aspect ratio : 5:3
Frame rate mode : Constant
Frame rate : 25.000 FPS
Color space : YUV
Chroma subsampling : 4:2:0
Bit depth : 8 bits
Scan type : Progressive
Bits/(Pixel*Frame) : 0.145
Stream size : 1.37 GiB (83%)
Writing library : core 146 r2538 121396c
Encoding settings : cabac=1 / ref=8 / deblock=1:-1:-1 / analyse=0x3:0x133 / me=umh / subme=9 / psy=1 / psy_rd=1.00:0.15 / mixed_ref=1 / me_range=16 / chroma_me=1 / trellis=2 / 8x8dct=1 / cqm=0 / deadzone=21,11 / fast_pskip=1 / chroma_qp_offset=-3 / threads=3 / lookahead_threads=1 / sliced_threads=0 / nr=0 / decimate=1 / interlaced=0 / bluray_compat=0 / constrained_intra=0 / bframes=3 / b_pyramid=2 / b_adapt=2 / b_bias=0 / direct=3 / weightb=1 / open_gop=0 / weightp=2 / keyint=250 / keyint_min=25 / scenecut=40 / intra_refresh=0 / rc_lookahead=60 / rc=crf / mbtree=1 / crf=21.0 / qcomp=0.60 / qpmin=0 / qpmax=69 / qpstep=4 / ip_ratio=1.40 / aq=1:1.00
Language : French
Default : Yes
Forced : No

Audio #1
ID : 2
Format : AC-3
Format/Info : Audio Coding 3
Commercial name : Dolby Digital
Codec ID : A_AC3
Duration : 1 h 37 min
Bit rate mode : Constant
Bit rate : 192 kb/s
Channel(s) : 2 channels
Channel layout : L R
Sampling rate : 48.0 kHz
Frame rate : 31.250 FPS (1536 SPF)
Bit depth : 16 bits
Compression mode : Lossy
Delay relative to video : -280 ms
Stream size : 134 MiB (8%)
Language : Ukrainian
Service kind : Complete Main
Default : Yes
Forced : Yes

Audio #2
ID : 3
Format : AC-3
Format/Info : Audio Coding 3
Commercial name : Dolby Digital
Codec ID : A_AC3
Duration : 1 h 37 min
Bit rate mode : Constant
Bit rate : 224 kb/s
Channel(s) : 2 channels
Channel layout : L R
Sampling rate : 48.0 kHz
Frame rate : 31.250 FPS (1536 SPF)
Bit depth : 16 bits
Compression mode : Lossy
Delay relative to video : -280 ms
Stream size : 156 MiB (9%)
Language : French
Service kind : Complete Main
Default : No
Forced : No
Скріншоти









За якісний ріп дякуємо пану leicheman

Джерело:


Срібний реліз (на рейтинг впливає 50% завантаженого)
 Трекер:    Зареєстрований   

Завантажити / скачати фільм українською



відео для новачків



 Зареєстрований:   2019-03-13 03:24
 Розмір:   1.65 GB 
 Оцінка фільму:   9.7/10 (Голосів: 6)
   
Інші релізи
   Гультяй / Гульвіса / Le cavaleur (1979) -AVC Ukr/Fre ssTAss  4 / 0   1.58 GB   2019-03-08 18:10 
Ваш часовий пояс: GMT + 2 Години

Нова тема   Відповісти