Сексмісія (Нові амазонки) / Seksmisja (1983) Upscale 1080p 2xUkr/Pol | Sub Eng

Нові коментарі

Нова тема   Відповісти
Автор Повідомлення
підпільник 
VIP


З нами з: 11.04.12
Востаннє: 16.11.19
Повідомлень: 324

2019-03-13 01:19  
Сексмісія (Нові амазонки) / Seksmisja (1983) Upscale 1080p 2xUkr/Pol | Sub Eng

Сексмісія (Нові амазонки) / Seksmisja (1983) Upscale 1080p 2xUkr/Pol | Sub Eng


Жанр: комедія, фантастика, романтичний, еротика
Країна: Польща



Кінокомпанія: Zespól Filmowy "Kadr"
Режисер: Юліуш Махульскій
Актори: Єжи Штур, Ольгерд Лукашевич, Божена Стрийкувна, Богуслава Павелець, Ханна Станкувна, Беата Тишкевич та інші

Сюжет:
Прокинутися після заморожування через 60 років в суспільстві прекрасної статі, залишитися єдиними чоловіками на Землі після атомної війни - справа неабияка.
Та все ж наші герої - спритний ловелас Макс та інтелігент Альберт - блискуче виходять з цієї ситуації, повернувши «Новим амазонкам» красиву, чисту планету і наново навчивши їх любові...


Тривалість: 01:56:32
Якість: Upscale 1080p

Відео:
кодек:
розмір кадру: 1920 х 1080
бітрейт: 5331 кб/с

Аудіо # 1:
мова: українська
переклад: багатоголосий закадровий |
кодек: 2.0
бітрейт: 192кб/с

Аудіо # 2:
мова: українська
переклад: одноголосий закадровий | (переклав і озвучив Жорж - м. Кривий Ріг)
кодек: 2.0
бітрейт: 192кб/с

Аудіо # 3:
мова: польська
переклад: оригінал
кодек: 2.0
бітрейт: 192кб/с

Субтитри:
мова: англійська
тип: програмні (м'які)
формат: *.srt
Info
General
Complete name : /Seksmisja.1983..1000p.
Format :
Format version : Version 4 / Version 2
File size : 4.81 GiB
Duration : 1 h 56 min
Overall bit rate : 5 910 kb/s
Encoded date : UTC 2019-03-12 17:03:54
Writing application : v31.0.0 ('Dolores In A Shoestand') 64-bit
Writing library : libebml v1.3.6 + v1.4.9

Video
ID : 1
Format : AVC
Format/Info : Advanced Video Codec
Format profile : [email protected]
Format settings, CABAC : Yes
Format settings, ReFrames : 4 frames
Codec ID : V_MPEG4/ISO/AVC
Duration : 1 h 56 min
Bit rate : 5 331 kb/s
Width : 1 920 pixels
Height : 1 080 pixels
Display aspect ratio : 16:9
Frame rate mode : Constant
Frame rate : 25.000 FPS
Color space : YUV
Chroma subsampling : 4:2:0
Bit depth : 8 bits
Scan type : Progressive
Bits/(Pixel*Frame) : 0.103
Stream size : 4.34 GiB (90%)
Writing library : core 150
Encoding settings : cabac=1 / ref=3 / deblock=1:0:0 / analyse=0x3:0x133 / me=hex / subme=7 / psy=1 / psy_rd=1,00:0,00 / mixed_ref=1 / me_range=16 / chroma_me=1 / trellis=1 / 8x8dct=1 / cqm=0 / deadzone=21,11 / fast_pskip=1 / chroma_qp_offset=-2 / threads=6 / lookahead_threads=1 / sliced_threads=0 / nr=0 / decimate=1 / interlaced=0 / bluray_compat=0 / constrained_intra=0 / bframes=3 / b_pyramid=2 / b_adapt=1 / b_bias=0 / direct=1 / weightb=1 / open_gop=0 / weightp=2 / keyint=250 / keyint_min=25 / scenecut=40 / intra_refresh=0 / rc_lookahead=40 / rc=crf / mbtree=1 / crf=20,0 / qcomp=0,60 / qpmin=10 / qpmax=51 / qpstep=4 / ip_ratio=1,40 / aq=1:1,00
Default : Yes
Forced : No

Audio #1
ID : 2
Format : AC-3
Format/Info : Audio Coding 3
Mode extension : CM (complete main)
Format settings, Endianness : Big
Codec ID : A_AC3
Duration : 1 h 56 min
Bit rate mode : Constant
Bit rate : 192 kb/s
Channel(s) : 2 channels
Channel positions : Front: L R
Sampling rate : 48.0 kHz
Frame rate : 31.250 FPS (1536 spf)
Bit depth : 16 bits
Compression mode : Lossy
Stream size : 160 MiB (3%)
Language : Ukrainian
Default : Yes
Forced : No

Audio #2
ID : 3
Format : AC-3
Format/Info : Audio Coding 3
Mode extension : CM (complete main)
Format settings, Endianness : Big
Codec ID : A_AC3
Duration : 1 h 56 min
Bit rate mode : Constant
Bit rate : 192 kb/s
Channel(s) : 2 channels
Channel positions : Front: L R
Sampling rate : 48.0 kHz
Frame rate : 31.250 FPS (1536 spf)
Bit depth : 16 bits
Compression mode : Lossy
Stream size : 160 MiB (3%)
Language : Ukrainian
Default : No
Forced : No

Audio #3
ID : 4
Format : AC-3
Format/Info : Audio Coding 3
Mode extension : CM (complete main)
Format settings, Endianness : Big
Codec ID : A_AC3
Duration : 1 h 56 min
Bit rate mode : Constant
Bit rate : 192 kb/s
Channel(s) : 2 channels
Channel positions : Front: L R
Sampling rate : 48.0 kHz
Frame rate : 31.250 FPS (1536 spf)
Bit depth : 16 bits
Compression mode : Lossy
Stream size : 160 MiB (3%)
Language : Polish
Default : No
Forced : No

Text
ID : 5
Format : UTF-8
Codec ID : S_TEXT/UTF8
Codec ID/Info : UTF-8 Plain Text
Duration : 1 h 53 min
Bit rate : 51 b/s
Count of elements : 1190
Stream size : 43.0 KiB (0%)
Language : English
Default : No
Forced : No
тест

Скріншоти















Джерело:
за результатами

роздаєм


Срібний реліз (на рейтинг впливає 50% завантаженого)
 Трекер:    Зареєстрований   

Завантажити / скачати фільм українською



відео для новачків



 Зареєстрований:   2019-03-14 18:51
 Розмір:   4.81 GB 
 Оцінка фільму:   8/10 (Голосів: 5)
   
Lil`Antoni 
VIP


З нами з: 25.02.12
Востаннє: 13.11.19
Повідомлень: 742

2019-03-13 12:06  
О, в мене як 10 років цей фільм є, правда не в такій якості.
Треба оновити буде тоді ))

підпільник 
VIP


З нами з: 11.04.12
Востаннє: 16.11.19
Повідомлень: 324

2019-03-13 20:29  
продовжим ше до завтра, ато не внятно якось.
пока голосувалка каже - в топку.

ssTAss 
Модератор музики


З нами з: 05.07.08
Востаннє: 17.11.19
Повідомлень: 15575

2019-03-13 20:46  
підпільник написано:
ну взяв знач кінцо https://toloka.to/t92195 , розжав його

це якийсь апскейл виходить, не впевнений що так можна

leicheman 
Відео Гуртом - фільмокрай
Відео Гуртом - фільмокрай


З нами з: 03.07.14
Востаннє: 17.11.19
Повідомлень: 4190

2019-03-13 21:17  
ну можна приліпити до hdtv з польського каналу http://kinozal.tv/details.php?id=1045738
а з 720р роботи 1080р не варто, хіба що ви просто веб -дл 720р зробити веб -длріп 720р

підпільник 
VIP


З нами з: 11.04.12
Востаннє: 16.11.19
Повідомлень: 324

2019-03-13 21:37  
ssTAss ну якби оригінал був якісний, то да. даже швидше всього. а так ....
отак




leicheman ну 2 якихось кацапських по 7.12 гіг зкачував. обидва з блямпами. пропорції організмів вийшли однакові.

leicheman 
Відео Гуртом - фільмокрай
Відео Гуртом - фільмокрай


З нами з: 03.07.14
Востаннє: 17.11.19
Повідомлень: 4190

2019-03-13 23:57  
підпільник написано:
якихось кацапських

польських.

підпільник 
VIP


З нами з: 11.04.12
Востаннє: 16.11.19
Повідомлень: 324

2019-03-14 00:28  
leicheman шо такого польського тут
ти побачив? теж саме відео з двома блямпами в горі. перша дорога кацапська, друга полянська.
за твоїм посиланням (я качнув) теж саме шо я вже зкачував і прибив зразок.
норот сказав своє слово (дивись голосувалку) - таке не треба. дождемся до вечора і в топку.

leicheman 
Відео Гуртом - фільмокрай
Відео Гуртом - фільмокрай


З нами з: 03.07.14
Востаннє: 17.11.19
Повідомлень: 4190

2019-03-14 00:43  
підпільник написано:
шо такого польського тут

а що там кацапського окрім доріжки?
відео здерте з польського каналу то значить воно польське))

ssTAss 
Модератор музики


З нами з: 05.07.08
Востаннє: 17.11.19
Повідомлень: 15575

2019-03-14 01:26  
підпільник написано:
ssTAss ну якби оригінал був якісний, то да. даже швидше всього. а так ....

а тут http://filetracker.pl/torrent/145803 ?
Та якщо добре пошукати, то 720 нормальну знайти можна (не на кацапських сайтах... туди не ходжу)
Я не про те що не робити, а те, що не варто роздувати. Зробіть ті ж самі 720 тільки з нормальними пропорціями.
Буду мати час, то на польських сайтах пошпіоню..

bot 
робот


З нами з: 30.09.07
Востаннє: 26.05.05
Повідомлень: 22475

2019-03-14 18:46  
Тему перенесено з Анонси релізів до форуму Фільми в HD


підпільник

igor911 
Модератор відео


З нами з: 18.01.08
Востаннє: 17.11.19
Повідомлень: 13657

2019-03-14 19:00  
Цитата:
1000p

Треба виправити на Upscale 1080p

підпільник 
VIP


З нами з: 11.04.12
Востаннє: 16.11.19
Повідомлень: 324

2019-03-14 19:00  
зʼявицця шось краще - видалим аж зразу. віддавать буду правда дуже довго (зараз бед тічу взяли качать)
Dert 
Частий відвідувач


З нами з: 01.01.09
Востаннє: 25.10.19
Повідомлень: 34

2019-03-18 22:39  
багно якесь. Даремно цей дурень на 1+1 намагається мутити людям мозок своїми збоченнями
Ваш часовий пояс: GMT + 2 Години

Нова тема   Відповісти