День бабака / Groundhog Day (1993) [25th Anniversary] 1080p H.265 2хUkr/Eng | Sub Eng

Нові коментарі

Нова тема   Відповісти
Автор Повідомлення
Anonymous 







2019-03-12 20:51  
День бабака / Groundhog Day (1993) [25th Anniversary] 1080p H.265 2хUkr/Eng | Sub Eng

День бабака / Groundhog Day (1993) [25th Anniversary] 1080p H.265 2хUkr/Eng | Sub Eng


Жанр: комедія, драма, фентезі, романтичний
Країна: США
Кінокомпанія: Columbia Pictures Corporation
Режисер: Гарольд Раміс / Harold Ramis
Актори: Білл Мюррей / Bill Murray, Енді МакДавелл / Andie MacDowell, Кріс Елліот / Chris Elliott, Стівен Тоболовскі / Stephen Tobolowsky, Брайан Дойл-Мюррей / Brian Doyle-Murray, Маріта Ґераті / Marita Geraghty, Анджела Петон / Angela Paton, Рік Дукомман / Rick Ducommun, Рік Овертон / Rick Overton, Робин Дьюк / Robin Duke

Сюжет:
Телевізійний коментатор Філ Коннорс щороку приїжджає в маленьке містечко в штаті Пенсільванія на святкування Дня Бабака. Але цього разу веселість ризикує зайти дуже далеко. Час зіграв з ним злий жарт: він узяв та й зупинився. Тепер на календарі Філа чорніє одна і та ж дата - 2 лютого, з якої він ніяк не може вибратися. Безжурний ведучий намагається отримати вигоду зі свого комічного положення: попереду у нього сила-силенна часу і безтурботне передбачене майбутнє. Віднині з ним не трапиться нічого поганого... і нічого хорошого. У Філа залишилася одна заповітна мрія, проста і нехитра, - 3 лютого..

Тривалість: 01:41:04
Якість: [25th Anniversary]
Відео:
кодек: H.265 (HEVC)
розмір кадру: 1920 x 1036
бітрейт: 8 754 кб/с
бітова глибина: 10 біт
Увага! Перед завантаженням переконайтесь, що ваш пристрій відтворення (та/або ПЗ) підтримує H.265 (HEVC)

Аудіо # 1:
мова: українська
переклад: двоголосий закадровий
кодек: AC-3 2.0
бітрейт: 192 кб/с

Аудіо # 2:
мова: українська
переклад: багатоголосий закадровий
кодек: AC-3 2.0
бітрейт: 192 кб/с

Аудіо # 3:
мова: англійська
переклад: оригінал
кодек: AC-3 5.1
бітрейт: 640 кб/с

Субтитри # 1:
мова: англійська (Full),
тип: програмні (м'які)
формат: *.srt


Info
Код:
General
Unique ID                                : 227366664960620442270602079958372646067 (0xAB0D3A1234E9080A10123C9F14E6FCB3)
Complete name                            : F:\Video\Groundhog Day (1993) [25 Anniversary] 1080p H.265 [2xUKR_ENG].
Format                                   :
Format version                           : Version 4 / Version 2
File size                                : 6.90 GiB
Duration                                 : 1 h 41 min
Overall bit rate                         : 9 780 kb/s
Movie name                               : Groundhog Day (1993) [25 Anniversary]
Encoded date                             : UTC 2019-03-12 17:26:37
Writing application                      : v20.0.0 ('I Am The Sun') 64-bit
Writing library                          : libebml v1.3.5 + v1.4.8
Cover                                    : Yes
Attachments                              : Cover.jpg

Video
ID                                       : 1
Format                                   : HEVC
Format/Info                              : High Efficiency Video Coding
Format profile                           : Main [email protected]@High
Codec ID                                 : V_MPEGH/ISO/HEVC
Duration                                 : 1 h 41 min
Bit rate                                 : 8 754 kb/s
Width                                    : 1 920 pixels
Height                                   : 1 036 pixels
Display aspect ratio                     : 1.85:1
Frame rate mode                          : Constant
Frame rate                               : 23.976 (23976/1000) FPS
Original frame rate                      : 23.976 (24000/1001) FPS
Color space                              : YUV
Chroma subsampling                       : 4:2:0
Bit depth                                : 10 bits
Bits/(Pixel*Frame)                       : 0.184
Stream size                              : 6.18 GiB (90%)
Title                                    : Groundhog Day (1993) [25 Anniversary]
Writing library                          : x265 3.0_Au+4-dcbec33bfb0f:[Windows][GCC 9.0.1][64 bit] 10bit
Encoding settings                        : cpuid=1111039 / frame-threads=4 / numa-pools=16 / wpp / no-pmode / no-pme / no-psnr / no-ssim / log-level=2 / input-csp=1 / input-res=1920x1036 / interlace=0 / total-frames=145391 / level-idc=41 / high-tier=1 / uhd-bd=0 / ref=4 / no-allow-non-conformance / no-repeat-headers / annexb / no-aud / no-hrd / info / hash=0 / no-temporal-layers / open-gop / min-keyint=23 / keyint=240 / gop-lookahead=0 / bframes=10 / b-adapt=2 / b-pyramid / bframe-bias=0 / rc-lookahead=60 / lookahead-slices=4 / scenecut=40 / radl=0 / no-splice / no-intra-refresh / ctu=32 / min-cu-size=8 / rect / amp / max-tu-size=32 / tu-inter-depth=4 / tu-intra-depth=4 / limit-tu=1 / rdoq-level=2 / dynamic-rd=0.00 / no-ssim-rd / signhide / no-tskip / nr-intra=0 / nr-inter=0 / no-constrained-intra / no-strong-intra-smoothing / max-merge=5 / limit-refs=3 / limit-modes / me=3 / subme=7 / merange=57 / temporal-mvp / weightp / no-weightb / no-analyze-src-pics / deblock=-3:-3 / no-sao / no-sao-non-deblock / rd=6 / no-early-skip / no-rskip / no-fast-intra / no-tskip-fast / no-cu-lossless / no-b-intra / no-splitrd-skip / rdpenalty=0 / psy-rd=2.00 / psy-rdoq=1.00 / no-rd-refine / no-lossless / cbqpoffs=0 / crqpoffs=0 / rc=crf / crf=19.5 / qcomp=0.72 / qpstep=4 / stats-write=0 / stats-read=0 / vbv-maxrate=50000 / vbv-bufsize=50000 / vbv-init=0.9 / crf-max=0.0 / crf-min=0.0 / ipratio=1.40 / pbratio=1.30 / aq-mode=1 / aq-strength=1.00 / no-cutree / zone-count=0 / no-strict-cbr / qg-size=32 / no-rc-grain / qpmax=69 / qpmin=0 / no-const-vbv / sar=1 / overscan=0 / videoformat=5 / range=0 / colorprim=1 / transfer=1 / colormatrix=1 / chromaloc=0 / display-window=0 / max-cll=0,0 / min-luma=0 / max-luma=1023 / log2-max-poc-lsb=8 / vui-timing-info / vui-hrd-info / slices=1 / no-opt-qp-pps / no-opt-ref-list-length-pps / no-multi-pass-opt-rps / scenecut-bias=0.05 / no-opt-cu-delta-qp / no-aq-motion / no-hdr / no-hdr-opt / no-dhdr10-opt / no-idr-recovery-sei / analysis-reuse-level=5 / scale-factor=0 / refine-intra=0 / refine-inter=0 / refine-mv=0 / refine-ctu-distortion=0 / no-limit-sao / ctu-info=0 / no-lowpass-dct / refine-analysis-type=0 / copy-pic=1 / max-ausize-factor=1.0 / no-dynamic-refine / no-single-sei / hevc-aq / qp-adaptation-range=2.00
Language                                 : English
Default                                  : Yes
Forced                                   : No
Color range                              : Limited
Color primaries                          : BT.709
Transfer characteristics                 : BT.709
Matrix coefficients                      : BT.709

Audio #1
ID                                       : 2
Format                                   : AC-3
Format/Info                              : Audio Coding 3
Codec ID                                 : A_AC3
Duration                                 : 1 h 41 min
Bit rate mode                            : Constant
Bit rate                                 : 192 kb/s
Channel(s)                               : 2 channels
Channel positions                        : Front: L R
Sampling rate                            : 48.0 kHz
Frame rate                               : 31.250 FPS (1536 SPF)
Bit depth                                : 16 bits
Compression mode                         : Lossy
Stream size                              : 139 MiB (2%)
Title                                    : ДЗ - 1+1
Language                                 : Ukrainian
Service kind                             : Complete Main
Default                                  : Yes
Forced                                   : Yes

Audio #2
ID                                       : 3
Format                                   : AC-3
Format/Info                              : Audio Coding 3
Codec ID                                 : A_AC3
Duration                                 : 1 h 41 min
Bit rate mode                            : Constant
Bit rate                                 : 192 kb/s
Channel(s)                               : 2 channels
Channel positions                        : Front: L R
Sampling rate                            : 48.0 kHz
Frame rate                               : 31.250 FPS (1536 SPF)
Bit depth                                : 16 bits
Compression mode                         : Lossy
Stream size                              : 139 MiB (2%)
Title                                    : БЗ - Kanal Ukraina
Language                                 : Ukrainian
Service kind                             : Complete Main
Default                                  : No
Forced                                   : No

Audio #3
ID                                       : 4
Format                                   : AC-3
Format/Info                              : Audio Coding 3
Codec ID                                 : A_AC3
Duration                                 : 1 h 41 min
Bit rate mode                            : Constant
Bit rate                                 : 640 kb/s
Channel(s)                               : 6 channels
Channel positions                        : Front: L C R, Side: L R, LFE
Sampling rate                            : 48.0 kHz
Frame rate                               : 31.250 FPS (1536 SPF)
Bit depth                                : 16 bits
Compression mode                         : Lossy
Stream size                              : 463 MiB (7%)
Title                                    : Original
Language                                 : English
Service kind                             : Complete Main
Default                                  : No
Forced                                   : No

Text
ID                                       : 5
Format                                   : UTF-8
Codec ID                                 : S_TEXT/UTF8
Codec ID/Info                            : UTF-8 Plain Text
Duration                                 : 1 h 37 min
Bit rate                                 : 57 b/s
Count of elements                        : 1325
Stream size                              : 41.0 KiB (0%)
Title                                    : Full
Language                                 : English
Default                                  : Yes
Forced                                   : No

Menu
00:00:00.000                             : :Start
00:00:42.668                             : :A New Producer
00:04:22.679                             : :Punxsutawney
00:07:06.009                             : :Groundhog Day
00:10:26.668                             : :Gobbler's Knob 1
00:13:46.868                             : :Storm Warning
00:19:28.084                             : :Groundhog Day 2
00:24:15.162                             : :Gobbler's Knog 2
00:26:08.150                             : :Groundhog Day 3
00:26:49.566                             : :Gobbler's Knob 3
00:29:48.745                             : :Phil Seeks Help
00:36:46.913                             : :Groundhog Day 4
00:38:49.786                             : :No More Worries
00:42:04.605                             : :Phil Meets Nancy
00:48:40.626                             : :Groundhog Day 5
00:50:23.103                             : :Heist
00:51:22.496                             : :Groundhog Day 6
00:53:47.266                             : :Perfect Guy
00:56:23.463                             : :Gobbler Knob ?
01:00:57.737                             : :Day By Day
01:02:19.194                             : :Phil Kidnpas Phil
01:06:12.427                             : :Convincing Rita
01:09:46.391                             : :Phil's New Image
01:15:26.564                             : :Literature & Music
01:19:02.738                             : :Old Man Saga
01:19:22.216                             : :A Long Winter
01:21:06.695                             : :Guardian Angel
01:28:16.333                             : :Groundhog Dinner
01:31:11.967                             : :Rock-Maninoff
01:35:21.716                             : :Bidding for Phil
01:37:59.665                             : :A Warm Face
Світлини





Джерело: &
Особиста оцінка: 10 - без зайвих вагань рекомендую всім!


Срібний реліз (на рейтинг впливає 50% завантаженого)
 Трекер:    Зареєстрований   

Завантажити / скачати фільм українською



відео для новачків



 Зареєстрований:   2019-03-12 20:51
 Розмір:   6.9 GB 
 Оцінка фільму:   9.3/10 (Голосів: 9)
   
Інші релізи
hetzendorf 
Попереджень: 2
Попереджень: 2 


З нами з: 23.07.15
Востаннє: 15.09.19
Повідомлень: 2460

2019-03-12 23:00  
Чим відрізняється від https://toloka.to/t94804 ?
Anonymous 







2019-03-12 23:09  
hetzendorf
Там просто ремастер версія. Тут 25 Anniversary, ріп з 4к. + тут набагато кращі параметри кодування. Отже, якість картинки теж. Можете порівняти скріншоти.

Ваш часовий пояс: GMT + 2 Години

Нова тема   Відповісти