Людина-павук: Навколо всесвіту / Spider-Man: Into the Spider-Verse (2018) Remux 1080p Ukr/Eng | Sub Ukr/Eng

Нові коментарі

Нова тема   Відповісти
Автор Повідомлення
antik_2008 
Релізер і модератор відео


З нами з: 20.10.08
Востаннє: 23.03.19
Повідомлень: 1882

2019-03-12 16:24  
Людина-павук: Навколо всесвіту / Spider-Man: Into the Spider-Verse (2018) Remux 1080p Ukr/Eng | Sub Ukr/Eng

Людина-павук: Навколо всесвіту / Spider-Man: Into the Spider-Verse (2018) Remux 1080p Ukr/Eng | Sub Ukr/Eng


Жанр: бойовик, комедія, мультфільм, пригоди, сімейний, фантастика
Країна: США





Кінокомпанія: Columbia Pictures, Marvel Entertainment, Sony Pictures Animation
Режисер: Пітер Ремсі, Боб Персічетті, Родні Ротман
Ролі озвучують: Шамеік Мур, Джейк Джонсон, Гейлі Стайнфелд, Махершала Алі, Брайан Тайрі Генрі. Лілі Томлін, Лорен Велес, Зої Кравіц, Джон Малені, Кіміко Гленн

Сюжет:
Культовий супергерой відтепер у анімації нового покоління! Підліток з Нью-Йорка живе у світі безмежних можливостей Людини-павука, де костюм супергероя носить не лише він.


Тривалість: 01:56:50
Якість: Remux 1080p
Відео:
кодек:
розмір кадру: 1920x1080
бітрейт: ~21.8 мб/с

Аудіо # 1:
мова: українська
переклад: професійний дубльований
кодек: 2.0
бітрейт: 192 кб/с

Аудіо # 2:
мова: англійська
переклад: оригінал
кодек: 5.1
бітрейт: 640 кб/с

Аудіо # 3:
мова: англійська
переклад: оригінал
кодек: TrueHD 7.1
бітрейт: 3267 кб/с

Субтитри (Full):
мова: українська
тип: програмні (м'які)
формат: *.srt

Субтитри (Full):
мова: англійська
тип: програмні (м'які)
формат: *.srt
Info
Код:
General
Complete name                            : Spider-Man Into the Spider-Verse (2018) Remux [UKR_ENG] [ViDeO_Hurtom].
Format                                   :
Format version                           : Version 4
File size                                : 21.2 GiB
Duration                                 : 1 h 56 min
Overall bit rate mode                    : Variable
Overall bit rate                         : 26.0 Mb/s
Movie name                               : Spider-Man Into the Spider-Verse (2018) Remux [UKR_ENG] [ViDeO_Hurtom]
Encoded date                             : UTC 2019-03-12 13:48:43
Writing application                      : v30.1.0 ('Forever And More') 64-bit
Writing library                          : libebml v1.3.6 + v1.4.9

Video
ID                                       : 1
Format                                   : AVC
Format/Info                              : Advanced Video Codec
Format profile                           : [email protected]
Format settings                          : CABAC / 2 Ref Frames
Format settings, CABAC                   : Yes
Format settings, RefFrames               : 2 frames
Codec ID                                 : V_MPEG4/ISO/AVC
Duration                                 : 1 h 56 min
Bit rate mode                            : Variable
Bit rate                                 : 21.8 Mb/s
Width                                    : 1 920 pixels
Height                                   : 1 080 pixels
Display aspect ratio                     : 16:9
Frame rate mode                          : Constant
Frame rate                               : 23.976 (24000/1001) FPS
Color space                              : YUV
Chroma subsampling                       : 4:2:0
Bit depth                                : 8 bits
Scan type                                : Progressive
Bits/(Pixel*Frame)                       : 0.439
Stream size                              : 17.8 GiB (84%)
Language                                 : English
Default                                  : Yes
Forced                                   : No

Audio #1
ID                                       : 2
Format                                   : AC-3
Format/Info                              : Audio Coding 3
Commercial name                          : Dolby Digital
Codec ID                                 : A_AC3
Duration                                 : 1 h 56 min
Bit rate mode                            : Constant
Bit rate                                 : 192 kb/s
Channel(s)                               : 2 channels
Channel layout                           : L R
Sampling rate                            : 48.0 kHz
Frame rate                               : 31.250 FPS (1536 SPF)
Bit depth                                : 16 bits
Compression mode                         : Lossy
Stream size                              : 160 MiB (1%)
Title                                    : , 2 ch, 192 Кбт/с
Language                                 : Ukrainian
Service kind                             : Complete Main
Default                                  : Yes
Forced                                   : No

Audio #2
ID                                       : 3
Format                                   : AC-3
Format/Info                              : Audio Coding 3
Commercial name                          : Dolby Digital
Codec ID                                 : A_AC3
Duration                                 : 1 h 56 min
Bit rate mode                            : Constant
Bit rate                                 : 640 kb/s
Channel(s)                               : 6 channels
Channel layout                           : L R C LFE Ls Rs
Sampling rate                            : 48.0 kHz
Frame rate                               : 31.250 FPS (1536 SPF)
Bit depth                                : 16 bits
Compression mode                         : Lossy
Stream size                              : 535 MiB (2%)
Title                                    : , 6 ch, 640 Кбт/с
Language                                 : English
Service kind                             : Complete Main
Default                                  : No
Forced                                   : No

Audio #3
ID                                       : 4
Format                                   : MLP FBA 16-ch
Format/Info                              : Meridian Lossless Packing FBA with 16-channel presentation
Commercial name                          : Dolby TrueHD with Dolby Atmos
Codec ID                                 : A_TRUEHD
Duration                                 : 1 h 56 min
Bit rate mode                            : Variable
Bit rate                                 : 3 267 kb/s
Maximum bit rate                         : 4 935 kb/s
Channel(s)                               : 8 channels
Channel layout                           : L R C LFE Ls Rs Lb Rb
Sampling rate                            : 48.0 kHz
Frame rate                               : 1 200.000 FPS (40 SPF)
Compression mode                         : Lossless
Stream size                              : 2.67 GiB (13%)
Title                                    : TrueHD, 8 ch, 3267 Кбт/с
Language                                 : English
Default                                  : No
Forced                                   : No
Number of dynamic objects                : 11
Bed channel count                        : 1 channel
Bed channel configuration                : LFE

Text #1
ID                                       : 5
Format                                   : UTF-8
Codec ID                                 : S_TEXT/UTF8
Codec ID/Info                            : UTF-8 Plain Text
Duration                                 : 1 h 55 min
Bit rate                                 : 81 b/s
Count of elements                        : 1468
Stream size                              : 68.9 KiB (0%)
Title                                    : Full [iTunes]
Language                                 : Ukrainian
Default                                  : No
Forced                                   : No

Text #2
ID                                       : 6
Format                                   : UTF-8
Codec ID                                 : S_TEXT/UTF8
Codec ID/Info                            : UTF-8 Plain Text
Duration                                 : 1 h 55 min
Bit rate                                 : 54 b/s
Count of elements                        : 1389
Stream size                              : 46.4 KiB (0%)
Title                                    : Full [iTunes]
Language                                 : English
Default                                  : No
Forced                                   : No
Скріншоти










Підтримати купівлю інших фільмів можна тут.

Над доріжкою працювали: Sando7, AngryBirdsUA.

Джерело: &
Особиста оцінка: 6 - третій сорт - не брак


Золотий реліз (завантажене не впливає на рейтинг)
 Трекер:    Зареєстрований   

Завантажити / скачати мультфільм українською



відео для новачків



 Зареєстрований:   2019-03-12 16:24
 Розмір:   21.21 GB 
 Оцінка мультфільму:   9.1/10 (Голосів: 17)
   
Інші релізи
   Людина-павук: Навколо всесвіту / Spider-Man: Into the Spider-Verse (2018) 1080p H.265 Ukr/Eng | Sub Ukr/Eng -Star-Lord-  35 / 0   7.63 GB   2019-03-15 10:31 
   Людина-павук: Навколо всесвіту / Spider-Man: Into the Spider-Verse (2018) UHD Remux 4K 2160p HDR H.265 Ukr/Eng | Sub Ukr/Eng antik_2008  11 / 0   42.04 GB   2019-03-12 02:11 
   Людина-павук: Навколо всесвіту / Spider-Man: Into the Spider-Verse (2018) 1080p Ukr/Eng | Sub Ukr/Eng antik_2008  81 / 0   13.41 GB   2019-03-12 01:30 
   Людина-павук: Навколо всесвіту / Spider-Man: Into the Spider-Verse (2018) Ukr/Eng antik_2008  37 / 0   2.17 GB   2019-03-12 01:09 
   Людина-павук: Навколо всесвіту / Spider-Man: Into the Spider-Verse (2018) antik_2008  119 / 1   1.43 GB   2019-03-12 01:09 
   Людина-павук: Навколо всесвіту / Spider-Man: Into the Spider-Verse (2018) UHD 4K 2160p H.265 Ukr/Eng | Sub Ukr/Eng Bariska  11 / 0   15.42 GB   2019-03-12 00:14 
   Людина-павук: Навколо всесвіту / Spider-Man: Into the Spider-Verse (2018) 720p Ukr/Eng | Sub Ukr/Eng 11FrYkT  106 / 1   5.76 GB   2019-03-11 22:49 
   Людина-павук: Навколо всесвіту / Spider-Man: Into the Spider-Verse (2018) AVC Ukr/Eng | Sub Ukr/Eng 11FrYkT  130 / 0   2.18 GB   2019-03-11 22:48 
StepKryha 
Свій


З нами з: 21.06.17
Востаннє: 22.03.19
Повідомлень: 83

2019-03-13 19:10  
Він. Просто. Прекрасний.
Надзвичайні емоції, навіть після другого перегляду!
У ньому все просто чудово, немає до чого прискіпатись. Саме такі мультфільми, і мають бути прикладами для наслідування.

9 / 10. Бо нічого у світі ідеального немає. Рекомендую до перегляду!!

sandman 
VIP


З нами з: 12.08.12
Востаннє: 22.03.19
Повідомлень: 255

2019-03-14 22:56  
Не очікував такого, але був дже приємно вражений стрічкою. Це реально не просто мульт, а анімований фільм. Мало того, що мені самому дуже зайшло, та ще й 6-річний син просидів від першої хвилини до титрів, хоча, зазвичай дуже швидко відволкається від повнометражних мультиків. Дуже рекомендую, чудова картина
MasonTod 







2019-03-15 01:09  
Подивився перших пів-години, знову негра зводять у фільмі з натуральною білявкою, змішують кров щоб населення тупішало.
romaxa11 
Новенький


З нами з: 05.09.15
Востаннє: 22.03.19
Повідомлень: 17

2019-03-15 01:39  
Графічні технології зносять дах) Ну ще Аеліта - воїн зайшла)
sandman 
VIP


З нами з: 12.08.12
Востаннє: 22.03.19
Повідомлень: 255

2019-03-15 11:45  
MasonTod судчи з вашого коментаря процес тупішання успішно йде і без змішування
t3520983 
Новенький


З нами з: 04.01.18
Востаннє: 18.03.19
Повідомлень: 1

2019-03-15 17:08  
sandman
правду кажете.

MasonTod 







2019-03-16 02:44  
sandman написано:
судчи з вашого коментаря


Бажаю твоїй донці жениха негра.

sandman 
VIP


З нами з: 12.08.12
Востаннє: 22.03.19
Повідомлень: 255

2019-03-16 10:42  
MasonTod - ця фраза лише доводить моє твердження
MasonTod 







2019-03-17 11:12  
sandman

Ти нацмен або куколд.

Ваш часовий пояс: GMT + 2 Години

Нова тема   Відповісти