Людина-павук: Навколо всесвіту / Spider-Man: Into the Spider-Verse (2018) Remux 1080p Ukr/Eng | Sub Ukr/Eng

Нові коментарі

Нова тема   Відповісти
Автор Повідомлення
Anonymous 







2019-03-12 17:24  
Людина-павук: Навколо всесвіту / Spider-Man: Into the Spider-Verse (2018) Remux 1080p Ukr/Eng | Sub Ukr/Eng

Людина-павук: Навколо всесвіту / Spider-Man: Into the Spider-Verse (2018) Remux 1080p Ukr/Eng | Sub Ukr/Eng


Жанр: бойовик, комедія, мультфільм, пригоди, сімейний, фантастика
Країна: США





Кінокомпанія: Columbia Pictures, Marvel Entertainment, Sony Pictures Animation
Режисер: Пітер Ремсі, Боб Персічетті, Родні Ротман
Ролі озвучують: Шамеік Мур, Джейк Джонсон, Гейлі Стайнфелд, Махершала Алі, Брайан Тайрі Генрі. Лілі Томлін, Лорен Велес, Зої Кравіц, Джон Малені, Кіміко Гленн

Сюжет:
Культовий супергерой відтепер у анімації нового покоління! Підліток з Нью-Йорка живе у світі безмежних можливостей Людини-павука, де костюм супергероя носить не лише він.


Тривалість: 01:56:50
Якість: Remux 1080p

Відео:
кодек:
розмір кадру: 1920x1080
бітрейт: 21,8 Мб/с

Аудіо # 1:
мова: українська
переклад: професійний дубльований
кодек: 5.1
бітрейт: 640 кб/с

Аудіо # 2:
мова: англійська
переклад: оригінал
кодек: 5.1
бітрейт: 640 кб/с

Аудіо # 3:
мова: англійська
переклад: оригінал
кодек: TrueHD 7.1
бітрейт: 3267 кб/с

Субтитри (Forced, Full):
мова: українська
тип: програмні (м'які)
формат: *.srt

Субтитри (Full):
мова: англійська
тип: програмні (м'які)
формат: *.srt
Info
Код:
General
Complete name                            : Spider-Man Into the Spider-Verse (2018) [UKR_ENG] Remux [ViDeO_Hurtom].
Format                                   :
Format version                           : Version 4
File size                                : 21.6 GiB
Duration                                 : 1 h 56 min
Overall bit rate mode                    : Variable
Overall bit rate                         : 26.4 Mb/s
Movie name                               : Spider-Man Into the Spider-Verse (2018) [UKR_ENG] Remux [ViDeO_Hurtom]
Encoded date                             : UTC 2019-04-15 16:28:05
Writing application                      : v30.1.0 ('Forever And More') 64-bit
Writing library                          : libebml v1.3.6 + v1.4.9

Video
ID                                       : 1
Format                                   : AVC
Format/Info                              : Advanced Video Codec
Format profile                           : [email protected]
Format settings                          : CABAC / 2 Ref Frames
Format settings, CABAC                   : Yes
Format settings, RefFrames               : 2 frames
Codec ID                                 : V_MPEG4/ISO/AVC
Duration                                 : 1 h 56 min
Bit rate mode                            : Variable
Bit rate                                 : 21.8 Mb/s
Width                                    : 1 920 pixels
Height                                   : 1 080 pixels
Display aspect ratio                     : 16:9
Frame rate mode                          : Constant
Frame rate                               : 23.976 (24000/1001) FPS
Color space                              : YUV
Chroma subsampling                       : 4:2:0
Bit depth                                : 8 bits
Scan type                                : Progressive
Bits/(Pixel*Frame)                       : 0.439
Stream size                              : 17.8 GiB (83%)
Language                                 : English
Default                                  : Yes
Forced                                   : No

Audio #1
ID                                       : 2
Format                                   : AC-3
Format/Info                              : Audio Coding 3
Commercial name                          : Dolby Digital
Codec ID                                 : A_AC3
Duration                                 : 1 h 56 min
Bit rate mode                            : Constant
Bit rate                                 : 640 kb/s
Channel(s)                               : 6 channels
Channel layout                           : L R C LFE Ls Rs
Sampling rate                            : 48.0 kHz
Frame rate                               : 31.250 FPS (1536 SPF)
Bit depth                                : 16 bits
Compression mode                         : Lossy
Stream size                              : 535 MiB (2%)
Title                                    : , 6 ch, 640 Кбт/с
Language                                 : Ukrainian
Service kind                             : Complete Main
Default                                  : Yes
Forced                                   : No

Audio #2
ID                                       : 3
Format                                   : AC-3
Format/Info                              : Audio Coding 3
Commercial name                          : Dolby Digital
Codec ID                                 : A_AC3
Duration                                 : 1 h 56 min
Bit rate mode                            : Constant
Bit rate                                 : 640 kb/s
Channel(s)                               : 6 channels
Channel layout                           : L R C LFE Ls Rs
Sampling rate                            : 48.0 kHz
Frame rate                               : 31.250 FPS (1536 SPF)
Bit depth                                : 16 bits
Compression mode                         : Lossy
Stream size                              : 535 MiB (2%)
Title                                    : , 6 ch, 640 Кбт/с
Language                                 : English
Service kind                             : Complete Main
Default                                  : No
Forced                                   : No

Audio #3
ID                                       : 4
Format                                   : MLP FBA 16-ch
Format/Info                              : Meridian Lossless Packing FBA with 16-channel presentation
Commercial name                          : Dolby TrueHD with Dolby Atmos
Codec ID                                 : A_TRUEHD
Duration                                 : 1 h 56 min
Bit rate mode                            : Variable
Bit rate                                 : 3 267 kb/s
Maximum bit rate                         : 4 935 kb/s
Channel(s)                               : 8 channels
Channel layout                           : L R C LFE Ls Rs Lb Rb
Sampling rate                            : 48.0 kHz
Frame rate                               : 1 200.000 FPS (40 SPF)
Compression mode                         : Lossless
Stream size                              : 2.67 GiB (12%)
Title                                    : TrueHD, 8 ch, 3267 Кбт/с
Language                                 : English
Default                                  : No
Forced                                   : No
Number of dynamic objects                : 11
Bed channel count                        : 1 channel
Bed channel configuration                : LFE

Text #1
ID                                       : 5
Format                                   : UTF-8
Codec ID                                 : S_TEXT/UTF8
Codec ID/Info                            : UTF-8 Plain Text
Duration                                 : 1 h 55 min
Bit rate                                 : 1 b/s
Count of elements                        : 42
Stream size                              : 1.33 KiB (0%)
Title                                    : Forced
Language                                 : Ukrainian
Default                                  : Yes
Forced                                   : No

Text #2
ID                                       : 6
Format                                   : UTF-8
Codec ID                                 : S_TEXT/UTF8
Codec ID/Info                            : UTF-8 Plain Text
Duration                                 : 1 h 55 min
Bit rate                                 : 81 b/s
Count of elements                        : 1468
Stream size                              : 68.9 KiB (0%)
Title                                    : Full [iTunes]
Language                                 : Ukrainian
Default                                  : No
Forced                                   : No

Text #3
ID                                       : 7
Format                                   : UTF-8
Codec ID                                 : S_TEXT/UTF8
Codec ID/Info                            : UTF-8 Plain Text
Duration                                 : 1 h 55 min
Bit rate                                 : 54 b/s
Count of elements                        : 1389
Stream size                              : 46.4 KiB (0%)
Title                                    : Full [iTunes]
Language                                 : English
Default                                  : No
Forced                                   : No
Скріншоти










Джерело: &
Особиста оцінка: 6 - третій сорт - не брак


Золотий реліз (завантажене не впливає на рейтинг)
 Трекер:    Зареєстрований   

Завантажити / скачати мультфільм українською



відео для новачків



 Зареєстрований:   2019-04-17 20:14
 Розмір:   21.57 GB 
 Оцінка мультфільму:   9.1/10 (Голосів: 30)
   
Інші релізи
StepKryha 
Свій


З нами з: 21.06.17
Востаннє: 14.10.19
Повідомлень: 142

2019-03-13 20:10  
Він. Просто. Прекрасний.
Надзвичайні емоції, навіть після другого перегляду!
У ньому все просто чудово, немає до чого прискіпатись. Саме такі мультфільми, і мають бути прикладами для наслідування.

9 / 10. Бо нічого у світі ідеального немає. Рекомендую до перегляду!!

sandman 
VIP


З нами з: 12.08.12
Востаннє: 15.10.19
Повідомлень: 283

2019-03-14 23:56  
Не очікував такого, але був дже приємно вражений стрічкою. Це реально не просто мульт, а анімований фільм. Мало того, що мені самому дуже зайшло, та ще й 6-річний син просидів від першої хвилини до титрів, хоча, зазвичай дуже швидко відволкається від повнометражних мультиків. Дуже рекомендую, чудова картина
MasonTod 







2019-03-15 02:09  
Подивився перших пів-години, знову негра зводять у фільмі з натуральною білявкою, змішують кров щоб населення тупішало.
romaxa11 
Новенький


З нами з: 05.09.15
Востаннє: 14.10.19
Повідомлень: 20

2019-03-15 02:39  
Графічні технології зносять дах) Ну ще Аеліта - воїн зайшла)
propp 
Новенький


З нами з: 25.04.12
Востаннє: 27.04.19
Повідомлень: 4

2019-03-29 00:13  
Valnakus
і де тут расизм?
мені також остогидло бачити це кліше, де у чорного героя обов'язково має бути жінка\дівчина - синьоока білявка...чорних гарних дівчат не бува? бувають, це і є расизм
сам фільм на один раз піде, багато елементів специфічної культури афроамериканської, а ось графіка на дуже високому рівні, для очей одне задоволення

bogdanich 
VIP


З нами з: 24.10.13
Востаннє: 15.10.19
Повідомлень: 578

2019-03-29 16:22  
Стильний мультик та й сюжет цікавий.
9/10.
Дякую!

Anonymous 







2019-04-17 20:14  
Реліз оновлено на кращу якість звуку.

Воїн 
Відео Гуртом - дизайнер
Відео Гуртом - дизайнер


З нами з: 30.06.08
Востаннє: 13.10.19
Повідомлень: 1140

2019-04-20 14:14  
дайте, будь ласка, швидкості
Обіцяю потім роздавати по максимуму

Ваш часовий пояс: GMT + 2 Години

Нова тема   Відповісти