Лускунчик і чотири королівства / The Nutcracker and the Four Realms (2018) Remux 1080p Ukr/Eng | Sub Eng

Нові коментарі

Нова тема   Відповісти
Автор Повідомлення
antik_2008 
Релізер і модератор відео


З нами з: 20.10.08
Востаннє: 23.05.19
Повідомлень: 1991

2019-03-12 14:42  
Лускунчик і чотири королівства / The Nutcracker and the Four Realms (2018) Remux 1080p Ukr/Eng | Sub Eng

Лускунчик і чотири королівства / The Nutcracker and the Four Realms (2018) Remux 1080p Ukr/Eng | Sub Eng
Альтернативні постери:













Жанр: пригоди, сімейний, фентезі
Країна: США





Кінокомпанія: Walt Disney Pictures, The Mark Gordon Company
Режисер: Лассе Халльстрем, Джо Джонстон
Актори: МакКензі Фой, Джейден Фовора-Найт, Кіра Найтлі, Хелен Міррен, Морган Фрімен, Місті Коупленд, Еухеніо Дербес, Річард Е. Грант, Метью Макфейден

Сюжет:
У найважчі часи тільки Різдво приносить щастя в кожен будинок. Тільки ось юна Клара не хоче нічому радіти. Але її хрещений батько Дроссельмейер зробив їй незвичайний подарунок, який дозволив дівчинці потрапити в захопливий паралельний світ. Клара потрапила у світ, створений її загиблою матір'ю. У цьому королівстві є кілька областей: Країна Снігів, Країна Квітів, Країна Солодощів. Пробувши трохи там, дівчина зустрічає солдата Філіпа та розуміє, що вона принцеса, а мати її – королева. А ще Клара дізналася, що всі ці землі в небезпеці, адже їх хоче захопити Імбирна Мати разом зі своєю мишачою армією. Кларі треба дістатися до Четвертої Країни та дати бій ворогові. Цей світ потребує гармонії.


Тривалість: 01:39:16
Якість: Remux

Відео:
кодек:
розмір кадру: 1920x1080
бітрейт: 31,1 Мб/с

Аудіо # 1:
мова: українська
переклад: професійний дубльований
кодек: 5.1
бітрейт: 448 кб/с

Аудіо # 2:
мова: українська
переклад: професійний дубльований
кодек: 5.1
бітрейт: 1536 кб/с

Аудіо # 3:
мова: українська
переклад: професійний дубльований
кодек: -HD MA 5.1
бітрейт: 3930 кб/с

Аудіо # 4:
мова: англійська
переклад: оригінал
кодек: 5.1
бітрейт: 448 кб/с

Аудіо # 5:
мова: англійська
переклад: оригінал
кодек: -HD MA 7.1
бітрейт: 5358 кб/с

Субтитри (SDH, Full):
мова: англійська
тип: програмні (м'які)
формат: *.srt
Info
Код:
General
Complete name                            : The Nutcracker and the Four Realms (2018) [UKR_ENG] Remux [ViDeO_Hurtom].
Format                                   :
Format version                           : Version 4
File size                                : 29.7 GiB
Duration                                 : 1 h 39 min
Overall bit rate mode                    : Variable
Overall bit rate                         : 42.8 Mb/s
Movie name                               : The Nutcracker and the Four Realms (2018) [UKR_ENG] Remux [ViDeO_Hurtom]
Encoded date                             : UTC 2019-03-14 13:16:10
Writing application                      : v30.1.0 ('Forever And More') 64-bit
Writing library                          : libebml v1.3.6 + v1.4.9

Video
ID                                       : 1
Format                                   : AVC
Format/Info                              : Advanced Video Codec
Format profile                           : [email protected]
Format settings                          : CABAC / 4 Ref Frames
Format settings, CABAC                   : Yes
Format settings, RefFrames               : 4 frames
Codec ID                                 : V_MPEG4/ISO/AVC
Duration                                 : 1 h 39 min
Bit rate mode                            : Variable
Bit rate                                 : 31.1 Mb/s
Maximum bit rate                         : 34.7 Mb/s
Width                                    : 1 920 pixels
Height                                   : 1 080 pixels
Display aspect ratio                     : 16:9
Frame rate mode                          : Constant
Frame rate                               : 23.976 (24000/1001) FPS
Color space                              : YUV
Chroma subsampling                       : 4:2:0
Bit depth                                : 8 bits
Scan type                                : Progressive
Bits/(Pixel*Frame)                       : 0.625
Stream size                              : 21.5 GiB (73%)
Language                                 : English
Default                                  : Yes
Forced                                   : No

Audio #1
ID                                       : 2
Format                                   : AC-3
Format/Info                              : Audio Coding 3
Commercial name                          : Dolby Digital
Codec ID                                 : A_AC3
Duration                                 : 1 h 39 min
Bit rate mode                            : Constant
Bit rate                                 : 448 kb/s
Channel(s)                               : 6 channels
Channel layout                           : L R C LFE Ls Rs
Sampling rate                            : 48.0 kHz
Frame rate                               : 31.250 FPS (1536 SPF)
Bit depth                                : 16 bits
Compression mode                         : Lossy
Stream size                              : 318 MiB (1%)
Title                                    : , 6 ch, 448 Кбт/с
Language                                 : Ukrainian
Service kind                             : Complete Main
Default                                  : No
Forced                                   : No

Audio #2
ID                                       : 3
Format                                   :
Format/Info                              : Digital Theater Systems
Codec ID                                 : A_DTS
Duration                                 : 1 h 39 min
Bit rate mode                            : Constant
Bit rate                                 : 1 509 kb/s
Channel(s)                               : 6 channels
Channel layout                           : C L R Ls Rs LFE
Sampling rate                            : 48.0 kHz
Frame rate                               : 93.750 FPS (512 SPF)
Bit depth                                : 24 bits
Compression mode                         : Lossy
Stream size                              : 1.05 GiB (4%)
Title                                    : , 6 ch, 1536 Кбт/с
Language                                 : Ukrainian
Default                                  : No
Forced                                   : No

Audio #3
ID                                       : 4
Format                                   : XLL
Format/Info                              : Digital Theater Systems
Commercial name                          : -HD Master Audio
Codec ID                                 : A_DTS
Duration                                 : 1 h 39 min
Bit rate mode                            : Variable
Bit rate                                 : 3 930 kb/s
Channel(s)                               : 6 channels
Channel layout                           : C L R Ls Rs LFE
Sampling rate                            : 48.0 kHz
Frame rate                               : 93.750 FPS (512 SPF)
Bit depth                                : 24 bits
Compression mode                         : Lossless
Stream size                              : 2.73 GiB (9%)
Title                                    : -HD Master Audio,  ch, 3930 Кбт/с
Language                                 : Ukrainian
Default                                  : Yes
Forced                                   : No

Audio #4
ID                                       : 5
Format                                   : AC-3
Format/Info                              : Audio Coding 3
Commercial name                          : Dolby Digital
Codec ID                                 : A_AC3
Duration                                 : 1 h 39 min
Bit rate mode                            : Constant
Bit rate                                 : 448 kb/s
Channel(s)                               : 6 channels
Channel layout                           : L R C LFE Ls Rs
Sampling rate                            : 48.0 kHz
Frame rate                               : 31.250 FPS (1536 SPF)
Bit depth                                : 16 bits
Compression mode                         : Lossy
Stream size                              : 318 MiB (1%)
Title                                    : , 6 ch, 448 Кбт/с
Language                                 : English
Service kind                             : Complete Main
Default                                  : No
Forced                                   : No

Audio #5
ID                                       : 6
Format                                   : XLL
Format/Info                              : Digital Theater Systems
Commercial name                          : -HD Master Audio
Codec ID                                 : A_DTS
Duration                                 : 1 h 39 min
Bit rate mode                            : Variable
Bit rate                                 : 5 358 kb/s
Channel(s)                               : 8 channels
Channel layout                           : C L R LFE Lb Rb Lss Rss
Sampling rate                            : 48.0 kHz
Frame rate                               : 93.750 FPS (512 SPF)
Bit depth                                : 24 bits
Compression mode                         : Lossless
Stream size                              : 3.71 GiB (13%)
Title                                    : -HD MA, 8 ch, 5358 Кбт/с
Language                                 : English
Default                                  : No
Forced                                   : No

Text #1
ID                                       : 7
Format                                   : UTF-8
Codec ID                                 : S_TEXT/UTF8
Codec ID/Info                            : UTF-8 Plain Text
Duration                                 : 1 h 27 min
Bit rate                                 : 43 b/s
Count of elements                        : 1096
Stream size                              : 27.7 KiB (0%)
Title                                    : Full
Language                                 : English
Default                                  : No
Forced                                   : No

Text #2
ID                                       : 8
Format                                   : UTF-8
Codec ID                                 : S_TEXT/UTF8
Codec ID/Info                            : UTF-8 Plain Text
Duration                                 : 1 h 36 min
Bit rate                                 : 45 b/s
Count of elements                        : 1338
Stream size                              : 32.4 KiB (0%)
Title                                    : SDH
Language                                 : English
Default                                  : No
Forced                                   : No

Menu
00:00:00.000                             : :Глава 01
00:08:39.101                             : :Глава 02
00:16:47.256                             : :Глава 03
00:25:37.744                             : :Глава 04
00:34:20.891                             : :Глава 05
00:43:28.397                             : :Глава 06
00:48:31.992                             : :Глава 07
00:56:07.655                             : :Глава 08
00:59:09.545                             : :Глава 09
01:04:57.310                             : :Глава 10
01:11:49.722                             : :Глава 11
01:18:10.519                             : :Глава 12
01:22:04.002                             : :Глава 13
01:30:06.274                             : :Глава 14
Скріншоти






Джерело: &
Український звук - п.Hanway.
Особиста оцінка: 7 - моїй подрузі не сподобалося


Золотий реліз (завантажене не впливає на рейтинг)
 Трекер:    Зареєстрований   

Завантажити / скачати фільм українською



відео для новачків



 Зареєстрований:   2019-03-15 20:54
 Розмір:   29.66 GB 
 Оцінка фільму:   8.4/10 (Голосів: 8)
   
sandman 
VIP


З нами з: 12.08.12
Востаннє: 22.05.19
Повідомлень: 266

2019-03-12 15:36  
Дякую! Happy
11FrYkT 
Модератор відео


З нами з: 20.02.11
Востаннє: 23.05.19
Повідомлень: 5916

2019-03-12 16:14  
antik_2008 , рекомендую не роздавати
MakRA 
Поважний учасник


З нами з: 11.11.18
Востаннє: 23.05.19
Повідомлень: 199

2019-03-12 16:23  
11FrYkT
Щось не так з релізом?

11FrYkT 
Модератор відео


З нами з: 20.02.11
Востаннє: 23.05.19
Повідомлень: 5916

2019-03-12 16:24  
MakRA написано:
Щось не так з релізом?

є краща доріжка

antik_2008 
Релізер і модератор відео


З нами з: 20.10.08
Востаннє: 23.05.19
Повідомлень: 1991

2019-03-15 20:55  
Роздачу оновлено

Замінив аудіо на якісніше

Ваш часовий пояс: GMT + 2 Години

Нова тема   Відповісти