Чорна течія / Fleuve noir (2018) 1080p Ukr/Fre | Sub Eng/Fre

Нові коментарі

Нова тема   Відповісти
Автор Повідомлення
staf777 
Відео Гуртом - підтримка та поширення
Відео Гуртом - підтримка та поширення


З нами з: 16.11.16
Востаннє: 23.04.19
Повідомлень: 2285

2019-03-12 11:21  
Чорна течія / Fleuve noir (2018) 1080p Ukr/Fre | Sub Eng/Fre


«У кожного є брудна таємниця»




Жанр: детектив, драма, кримінал, трилер
Країна: Франція, Бельгія



Кінокомпанія: Curiosa Films, Mars Films, France 2 Cinéma See
Режисер: Ерік Зонка
Актори: Венсан Кассель, Ромен Дюрі, Сандрін Кіберлен, Елоді Буше, Шарль Берлінг, Афсіа Ерзі, Жером Пулі, Фелікс Бек, Лорена Телье, Стефан Войтовіч

Сюжет:
Комісар Вісконті розслідує, на перший погляд, рутинну справу, пов’язану зі зникненням підлітка. Бувалому поліцейському здається підозрілим все: і сексапільна мати, і неговіркий здоровань-батько, і навіть шкільний учитель, який несподівано запропонував поліцейському свою допомогу в пошуках. Слідство петляє від підозрюваного до підозрюваного, але жодних слідів підлітка немає, і шансів знайти його живим все менше і менш. І у кожного є своя брудна таємниця...


Тривалість: 01:53:30
Якість: 1080p

Відео:
кодек:
розмір кадру: 1920х804
бітрейт: 17000 кб/с

Аудіо # 1:
мова: українська
переклад: професійний дубльований
кодек: 5.1
бітрейт: 384 кб/с

Аудіо # 2:
мова: французька
переклад: оригінал
кодек: DTS5.1
бітрейт: 1509 кб/с

Субтитри:
мова: англійська , французька
тип: програмні (м'які)
формат: *.srt
Info
Код:

General
Unique ID                   : 131048781217138784654796754968381969702 (0x629713C2DD70914B04AA07CA3CE75526)
Complete name               : S:\» HD українською » Фільми в HD\Трилер\Fleuve noir (2018) 1080p[UKR_ENG] [Hurtom].
Format                      :
Format version              : Version 4
File size                   : 15.0 GiB
Duration                    : 1 h 53 min
Overall bit rate            : 18.9 Mb/s
Movie name                  : Fleuve noir (2018) 1080p[UKR_ENG] [Hurtom]
Encoded date                : UTC 2019-03-12 17:09:42
Writing application         : v30.1.0 ('Forever And More') 64-bit
Writing library             : libebml v1.3.6 + v1.4.9

Video
ID                          : 1
Format                      : AVC
Format/Info                 : Advanced Video Codec
Format profile              : [email protected]
Format settings             : CABAC / 5 Ref Frames
Format settings, CABAC      : Yes
Format settings, ReFrames   : 5 frames
Codec ID                    : V_MPEG4/ISO/AVC
Duration                    : 1 h 53 min
Bit rate                    : 17.0 Mb/s
Width                       : 1 920 pixels
Height                      : 804 pixels
Display aspect ratio        : 2.40:1
Frame rate mode             : Constant
Frame rate                  : 23.976 (24000/1001) FPS
Color space                 : YUV
Chroma subsampling          : 4:2:0
Bit depth                   : 8 bits
Scan type                   : Progressive
Bits/(Pixel*Frame)          : 0.459
Stream size                 : 13.5 GiB (90%)
Title                       : Fleuve Noir a.k.a. Black Tide 2018 1080p BluRay -LoRD
Writing library             : core 157 r2935 LoRD
Encoding settings           : cabac=1 / ref=5 / deblock=1:-3:-3 / analyse=0x3:0x133 / me=umh / subme=10 / psy=1 / psy_rd=1.00:0.00 / mixed_ref=1 / me_range=32 / chroma_me=1 / trellis=2 / 8x8dct=1 / cqm=0 / deadzone=21,11 / fast_pskip=0 / chroma_qp_offset=-2 / threads=12 / lookahead_threads=2 / sliced_threads=0 / nr=0 / decimate=0 / interlaced=0 / bluray_compat=0 / constrained_intra=0 / bframes=8 / b_pyramid=2 / b_adapt=2 / b_bias=0 / direct=3 / weightb=1 / open_gop=0 / weightp=2 / keyint=250 / keyint_min=23 / scenecut=40 / intra_refresh=0 / rc_lookahead=60 / rc=2pass / mbtree=0 / bitrate=17000 / ratetol=1.0 / qcomp=0.60 / qpmin=0 / qpmax=69 / qpstep=4 / cplxblur=20.0 / qblur=0.5 / vbv_maxrate=50000 / vbv_bufsize=62500 / nal_hrd=none / filler=0 / ip_ratio=1.30 / pb_ratio=1.20 / aq=3:0.80
Language                    : French
Default                     : Yes
Forced                      : No

Audio #1
ID                          : 2
Format                      : AC-3
Format/Info                 : Audio Coding 3
Commercial name             : Dolby Digital
Codec ID                    : A_AC3
Duration                    : 1 h 53 min
Bit rate mode               : Constant
Bit rate                    : 384 kb/s
Channel(s)                  : 6 channels
Channel layout              : L R C LFE Ls Rs
Sampling rate               : 48.0 kHz
Frame rate                  : 31.250 FPS (1536 SPF)
Bit depth                   : 16 bits
Compression mode            : Lossy
Stream size                 : 312 MiB (2%)
Language                    : Ukrainian
Service kind                : Complete Main
Default                     : Yes
Forced                      : Yes

Audio #2
ID                          : 3
Format                      :
Format/Info                 : Digital Theater Systems
Codec ID                    : A_DTS
Duration                    : 1 h 53 min
Bit rate mode               : Constant
Bit rate                    : 1 509 kb/s
Channel(s)                  : 6 channels
Channel layout              : C L R Ls Rs LFE
Sampling rate               : 48.0 kHz
Frame rate                  : 93.750 FPS (512 SPF)
Bit depth                   : 24 bits
Compression mode            : Lossy
Stream size                 : 1.20 GiB (8%)
Title                       : Original
Language                    : French
Default                     : No
Forced                      : No

Text #1
ID                          : 4
Format                      : UTF-8
Codec ID                    : S_TEXT/UTF8
Codec ID/Info               : UTF-8 Plain Text
Duration                    : 1 h 52 min
Bit rate                    : 58 b/s
Count of elements           : 1452
Stream size                 : 48.6 KiB (0%)
Title                       : Full
Language                    : English
Default                     : No
Forced                      : No

Text #2
ID                          : 5
Format                      : UTF-8
Codec ID                    : S_TEXT/UTF8
Codec ID/Info               : UTF-8 Plain Text
Duration                    : 1 h 52 min
Bit rate                    : 67 b/s
Count of elements           : 1473
Stream size                 : 55.9 KiB (0%)
Title                       : Full
Language                    : French
Default                     : No
Forced                      : No

Text #3
ID                          : 6
Format                      : UTF-8
Codec ID                    : S_TEXT/UTF8
Codec ID/Info               : UTF-8 Plain Text
Duration                    : 1 h 50 min
Bit rate                    : 62 b/s
Count of elements           : 1648
Stream size                 : 50.3 KiB (0%)
Title                       : SDH
Language                    : French
Default                     : No
Forced                      : No

Menu
00:00:00.000                : en:00:00:00.000
00:11:00.326                : en:00:11:00.326
00:21:04.597                : en:00:21:04.597
00:29:31.937                : en:00:29:31.937
00:40:24.297                : en:00:40:24.297
00:54:07.870                : en:00:54:07.870
01:03:48.867                : en:01:03:48.867
01:15:23.144                : en:01:15:23.144
01:23:46.688                : en:01:23:46.688
01:33:18.676                : en:01:33:18.676
01:44:21.464                : en:01:44:21.464
01:51:24.094                : en:01:51:24.094



Підтримати купівлю інших фільмів можна тут.

Подяка пану AngryBirdsUA за доріжку та Hanway за синхронізацію.

Джерело:
Особиста оцінка: 0 - не дивився


 Трекер:    Зареєстрований   

Завантажити / скачати фільм українською



відео для новачків



 Зареєстрований:   2019-03-13 09:28
 Розмір:   14.98 GB 
 Оцінка фільму:   6.9/10 (Голосів: 8)
   
Інші релізи
   Чорна течія / Fleuve noir (2018) antik_2008  39 / 0   1.47 GB   2019-03-12 13:14 
   Чорна течія / Fleuve noir (2018) 720p Ukr/Fre | Sub Eng/Fre 11FrYkT  24 / 0   4.52 GB   2019-03-11 18:20 
   Чорна течія / Fleuve noir (2018) AVC Ukr/Fre | Sub Eng/Fre 11FrYkT  55 / 0   2.18 GB   2019-03-11 18:12 
bot 
робот


З нами з: 30.09.07
Востаннє: 26.05.05
Повідомлень: 21237

2019-03-12 20:39  
Тему перенесено з Анонси релізів до форуму Фільми в HD


staf777

Uberwinder 
VIP


З нами з: 18.11.16
Востаннє: 23.04.19
Повідомлень: 276

2019-04-13 09:48  
Вітаю, а Remux не планується?
Ваш часовий пояс: GMT + 2 Години

Нова тема   Відповісти