Людина-павук: Навколо всесвіту / Spider-Man: Into the Spider-Verse (2018) UHD Remux 4K 2160p HDR H.265 Ukr/Eng | Sub Ukr/Eng

Нові коментарі

Нова тема   Відповісти
Автор Повідомлення
Anonymous 







2019-03-12 02:11  
Людина-павук: Навколо всесвіту / Spider-Man: Into the Spider-Verse (2018) UHD Remux 4K 2160p HDR H.265 Ukr/Eng | Sub Ukr/Eng

Людина-павук: Навколо всесвіту / Spider-Man: Into the Spider-Verse (2018) UHD Remux 4K 2160p HDR H.265 Ukr/Eng | Sub Ukr/Eng


Жанр: бойовик, комедія, мультфільм, пригодницький, сімейний, фантастика
Країна: США



Кінокомпанія: Columbia Pictures, Marvel Entertainment, Sony Pictures Animation
Режисер: Пітер Ремсі, Боб Персічетті, Родні Ротман
Ролі озвучують: Шамеік Мур, Джейк Джонсон, Гейлі Стайнфелд, Махершала Алі, Брайан Тайрі Генрі. Лілі Томлін, Лорен Велес, Зої Кравіц, Джон Малені, Кіміко Гленн

Сюжет:
Культовий супергерой відтепер у анімації нового покоління! Підліток з Нью-Йорка живе у світі безмежних можливостей Людини-павука, де костюм супергероя носить не лише він.


Тривалість: 01:56:50
Якість: 4K UltraHD Remux 2160p

Відео:
кодек: H.265 (HEVC)
розмір кадру: 3840x2160
бітрейт: 47,5 Мб/с
бітова глибина: 10 біт
кольоровий простір: BT.2020 (HDR)

Аудіо # 1:
мова: українська
переклад: професійний дубльований
кодек: 5.1
бітрейт: 640 кб/с

Аудіо # 2:
мова: англійська
переклад: оригінал
кодек: 5.1
бітрейт: 640 кб/с

Аудіо # 3:
мова: англійська
переклад: оригінал
кодек: TrueHD 7.1
бітрейт: 3267 кб/с

Субтитри (Forced, Full):
мова: українська
тип: програмні (м'які)
формат: *.srt

Субтитри (Full):
мова: англійська
тип: програмні (м'які)
формат: *.srt
Info
Код:
General
Complete name                            : Spider-Man Into the Spider-Verse (2018) Remux 4K 2160p (HEVC) HDR H.265 [UKR_ENG] [ViDeO_Hurtom].
Format                                   :
Format version                           : Version 4
File size                                : 42.6 GiB
Duration                                 : 1 h 56 min
Overall bit rate mode                    : Variable
Overall bit rate                         : 52.2 Mb/s
Movie name                               : Spider-Man Into the Spider-Verse (2018) Remux 4K 2160p (HEVC) HDR H.265 [UKR_ENG] [ViDeO_Hurtom]
Encoded date                             : UTC 2019-04-17 18:07:19
Writing application                      : v30.1.0 ('Forever And More') 64-bit
Writing library                          : libebml v1.3.6 + v1.4.9

Video
ID                                       : 1
Format                                   : HEVC
Format/Info                              : High Efficiency Video Coding
Commercial name                          : HDR10
Format profile                           : Main [email protected]@High
Codec ID                                 : V_MPEGH/ISO/HEVC
Duration                                 : 1 h 56 min
Bit rate                                 : 47.5 Mb/s
Width                                    : 3 840 pixels
Height                                   : 2 160 pixels
Display aspect ratio                     : 16:9
Frame rate mode                          : Constant
Frame rate                               : 23.976 (24000/1001) FPS
Color space                              : YUV
Chroma subsampling                       : 4:2:0 (Type 2)
Bit depth                                : 10 bits
Bits/(Pixel*Frame)                       : 0.239
Stream size                              : 38.8 GiB (91%)
Language                                 : English
Default                                  : Yes
Forced                                   : No
Color range                              : Limited
Color primaries                          : BT.2020
Transfer characteristics                 : PQ
Matrix coefficients                      : BT.2020 non-constant
Mastering display color primaries        : Display P3
Mastering display luminance              : min: 0.0050 cd/m2, max: 4000 cd/m2
Maximum Content Light Level              : 9877 cd/m2
Maximum Frame-Average Light Level        : 934 cd/m2

Audio #1
ID                                       : 2
Format                                   : AC-3
Format/Info                              : Audio Coding 3
Commercial name                          : Dolby Digital
Codec ID                                 : A_AC3
Duration                                 : 1 h 56 min
Bit rate mode                            : Constant
Bit rate                                 : 640 kb/s
Channel(s)                               : 6 channels
Channel layout                           : L R C LFE Ls Rs
Sampling rate                            : 48.0 kHz
Frame rate                               : 31.250 FPS (1536 SPF)
Bit depth                                : 16 bits
Compression mode                         : Lossy
Delay relative to video                  : -8 ms
Stream size                              : 535 MiB (1%)
Title                                    : , 6 ch, 640 Кбт/с
Language                                 : Ukrainian
Service kind                             : Complete Main
Default                                  : Yes
Forced                                   : No

Audio #2
ID                                       : 3
Format                                   : AC-3
Format/Info                              : Audio Coding 3
Commercial name                          : Dolby Digital
Codec ID                                 : A_AC3
Duration                                 : 1 h 56 min
Bit rate mode                            : Constant
Bit rate                                 : 640 kb/s
Channel(s)                               : 6 channels
Channel layout                           : L R C LFE Ls Rs
Sampling rate                            : 48.0 kHz
Frame rate                               : 31.250 FPS (1536 SPF)
Bit depth                                : 16 bits
Compression mode                         : Lossy
Stream size                              : 535 MiB (1%)
Title                                    : , 6 ch, 640 Кбт/с
Language                                 : English
Service kind                             : Complete Main
Default                                  : No
Forced                                   : No

Audio #3
ID                                       : 4
Format                                   : MLP FBA 16-ch
Format/Info                              : Meridian Lossless Packing FBA with 16-channel presentation
Commercial name                          : Dolby TrueHD with Dolby Atmos
Codec ID                                 : A_TRUEHD
Duration                                 : 1 h 56 min
Bit rate mode                            : Variable
Bit rate                                 : 3 267 kb/s
Maximum bit rate                         : 4 935 kb/s
Channel(s)                               : 8 channels
Channel layout                           : L R C LFE Ls Rs Lb Rb
Sampling rate                            : 48.0 kHz
Frame rate                               : 1 200.000 FPS (40 SPF)
Compression mode                         : Lossless
Stream size                              : 2.67 GiB (6%)
Title                                    : TrueHD, 8 ch, 3267 Кбт/с
Language                                 : English
Default                                  : No
Forced                                   : No
Number of dynamic objects                : 11
Bed channel count                        : 1 channel
Bed channel configuration                : LFE

Text #1
ID                                       : 5
Format                                   : UTF-8
Codec ID                                 : S_TEXT/UTF8
Codec ID/Info                            : UTF-8 Plain Text
Duration                                 : 1 h 55 min
Bit rate                                 : 1 b/s
Count of elements                        : 42
Stream size                              : 1.33 KiB (0%)
Title                                    : Forced
Language                                 : Ukrainian
Default                                  : Yes
Forced                                   : No

Text #2
ID                                       : 6
Format                                   : UTF-8
Codec ID                                 : S_TEXT/UTF8
Codec ID/Info                            : UTF-8 Plain Text
Duration                                 : 1 h 55 min
Bit rate                                 : 81 b/s
Count of elements                        : 1468
Stream size                              : 68.9 KiB (0%)
Title                                    : Full
Language                                 : Ukrainian
Default                                  : No
Forced                                   : No

Text #3
ID                                       : 7
Format                                   : UTF-8
Codec ID                                 : S_TEXT/UTF8
Codec ID/Info                            : UTF-8 Plain Text
Duration                                 : 1 h 55 min
Bit rate                                 : 54 b/s
Count of elements                        : 1389
Stream size                              : 46.4 KiB (0%)
Title                                    : Full
Language                                 : English
Default                                  : No
Forced                                   : No

Menu
00:00:00.000                             : en:Chapter 01
00:09:03.793                             : en:Chapter 02
00:14:04.719                             : en:Chapter 03
00:18:51.714                             : en:Chapter 04
00:29:39.027                             : en:Chapter 05
00:34:14.636                             : en:Chapter 06
00:40:34.432                             : en:Chapter 07
00:44:22.827                             : en:Chapter 08
00:48:06.884                             : en:Chapter 09
00:58:45.855                             : en:Chapter 10
01:06:04.460                             : en:Chapter 11
01:09:55.483                             : en:Chapter 12
01:20:00.003                             : en:Chapter 13
01:24:54.923                             : en:Chapter 14
01:33:33.399                             : en:Chapter 15
01:55:26.920                             : en:Chapter 16
Скріншоти


Джерело: &
Особиста оцінка: 6 - третій сорт - не брак
Увага! Перед завантаженням переконайтесь, що ваш пристрій відтворення (та/або ПЗ) підтримує H.265 (HEVC)


Золотий реліз (завантажене не впливає на рейтинг)
 Трекер:    Зареєстрований   

Завантажити / скачати мультфільм українською



відео для новачків



 Зареєстрований:   2019-04-17 20:51
 Розмір:   42.57 GB 
 Оцінка мультфільму:   9.2/10 (Голосів: 19)
   
Anonymous 







2019-04-17 20:52  
Реліз оновлено на ліцензію

ngxwinger 
Свій


З нами з: 19.01.14
Востаннє: 29.11.20
Повідомлень: 67

2019-04-28 18:13  
Лише сьогодні переглянув попри те, що завантажив дуже давно. Поставив 8 з 10, хоча початок був дуже слабким, та далі стало цікавіше.
Графіка красива, але анімація то біль для моїх очей, жахливо коли ти звик до плавних 60 кадрів в секунду, а тут навіть SVP не допомогає....

portsmuth 
Свій


З нами з: 10.06.14
Востаннє: 14.11.20
Повідомлень: 77

2019-06-11 13:31  
Подивився 30 хвилин від сили. Не моє(((
Ваш часовий пояс: GMT + 2 Години

Нова тема   Відповісти