Людина-павук: Навколо всесвіту / Spider-Man: Into the Spider-Verse (2018) 1080p Ukr/Eng | Sub Ukr/Eng

Нові коментарі

Нова тема   Відповісти
Автор Повідомлення
antik_2008 
Релізер і модератор відео


З нами з: 20.10.08
Востаннє: 17.06.19
Повідомлень: 2052

2019-03-12 02:30  
Людина-павук: Навколо всесвіту / Spider-Man: Into the Spider-Verse (2018) 1080p Ukr/Eng | Sub Ukr/Eng

Людина-павук: Навколо всесвіту / Spider-Man: Into the Spider-Verse (2018) 1080p Ukr/Eng | Sub Ukr/Eng


Жанр: бойовик, комедія, мультфільм, пригодницький, сімейний, фантастика
Країна: США





Кінокомпанія: Columbia Pictures, Marvel Entertainment, Sony Pictures Animation
Режисер: Пітер Ремсі, Боб Персічетті, Родні Ротман
Ролі озвучують: Шамеік Мур, Джейк Джонсон, Гейлі Стайнфелд, Махершала Алі, Брайан Тайрі Генрі. Лілі Томлін, Лорен Велес, Зої Кравіц, Джон Малені, Кіміко Гленн

Сюжет:
Культовий супергерой відтепер у анімації нового покоління! Підліток з Нью-Йорка живе у світі безмежних можливостей Людини-павука, де костюм супергероя носить не лише він.


Тривалість: 01:56:50
Якість: 1080p

Відео:
кодек:
розмір кадру: 1920x804
бітрейт: 14,7 Мб/с

Аудіо # 1:
мова: українська
переклад: професійний дубльований
кодек: 5.1
бітрейт: 640 кб/с

Аудіо # 2:
мова: англійська
переклад: оригінал
кодек: 5.1
бітрейт: 1509 кб/с

Субтитри (Forced, Full):
мова: українська
тип: програмні (м'які)
формат: *.srt

Субтитри (Full):
мова: англійська
тип: програмні (м'які)
формат: *.srt
Info
Код:
General
Complete name                            : Spider-Man Into the Spider-Verse (2018) 1080p [ukr_eng] [ViDeO_Hurtom].
Format                                   :
Format version                           : Version 4
File size                                : 13.8 GiB
Duration                                 : 1 h 56 min
Overall bit rate                         : 16.9 Mb/s
Movie name                               : Spider-Man Into the Spider-Verse (2018) 1080p [ukr_eng] [ViDeO_Hurtom]
Encoded date                             : UTC 2019-04-15 15:15:20
Writing application                      : v30.1.0 ('Forever And More') 64-bit
Writing library                          : libebml v1.3.6 + v1.4.9

Video
ID                                       : 1
Format                                   : AVC
Format/Info                              : Advanced Video Codec
Format profile                           : [email protected]
Format settings                          : CABAC / 5 Ref Frames
Format settings, CABAC                   : Yes
Format settings, RefFrames               : 5 frames
Codec ID                                 : V_MPEG4/ISO/AVC
Duration                                 : 1 h 56 min
Bit rate                                 : 14.7 Mb/s
Width                                    : 1 920 pixels
Height                                   : 804 pixels
Display aspect ratio                     : 2.40:1
Frame rate mode                          : Constant
Frame rate                               : 23.976 (24000/1001) FPS
Color space                              : YUV
Chroma subsampling                       : 4:2:0
Bit depth                                : 8 bits
Scan type                                : Progressive
Bits/(Pixel*Frame)                       : 0.398
Stream size                              : 12.0 GiB (87%)
Title                                    : MTeam
Writing library                          : core 157 r2938 2b00a84 [email protected] Mod
Encoding settings                        : cabac=1 / ref=5 / deblock=1:-1:-1 / analyse=0x3:0x133 / me=umh / subme=10 / psy=1 / psy_rd=1.05:0.00 / mixed_ref=1 / me_range=24 / chroma_me=1 / trellis=2 / 8x8dct=1 / cqm=0 / deadzone=21,11 / fast_pskip=0 / chroma_qp_offset=-2 / threads=12 / lookahead_threads=2 / sliced_threads=0 / nr=0 / decimate=0 / interlaced=0 / bluray_compat=0 / constrained_intra=0 / bframes=8 / b_pyramid=2 / b_adapt=2 / b_bias=0 / direct=3 / weightb=1 / open_gop=0 / weightp=2 / keyint=250 / keyint_min=24 / scenecut=40 / intra_refresh=0 / rc_lookahead=250 / rc=crf / mbtree=0 / crf=16.2 / qcomp=0.60 / qpmin=0 / qpmax=69 / qpstep=4 / vbv_maxrate=62500 / vbv_bufsize=78125 / crf_max=0.0 / nal_hrd=none / filler=0 / ip_ratio=1.30 / pb_ratio=1.20 / aq=1:0.90
Language                                 : English
Default                                  : Yes
Forced                                   : No
Color range                              : Limited
Color primaries                          : BT.709
Matrix coefficients                      : BT.709

Audio #1
ID                                       : 2
Format                                   : AC-3
Format/Info                              : Audio Coding 3
Commercial name                          : Dolby Digital
Codec ID                                 : A_AC3
Duration                                 : 1 h 56 min
Bit rate mode                            : Constant
Bit rate                                 : 640 kb/s
Channel(s)                               : 6 channels
Channel layout                           : L R C LFE Ls Rs
Sampling rate                            : 48.0 kHz
Frame rate                               : 31.250 FPS (1536 SPF)
Bit depth                                : 16 bits
Compression mode                         : Lossy
Stream size                              : 535 MiB (4%)
Title                                    : , 6 ch, 640 Кбт/с
Language                                 : Ukrainian
Service kind                             : Complete Main
Default                                  : Yes
Forced                                   : No

Audio #2
ID                                       : 3
Format                                   :
Format/Info                              : Digital Theater Systems
Codec ID                                 : A_DTS
Duration                                 : 1 h 56 min
Bit rate mode                            : Constant
Bit rate                                 : 1 509 kb/s
Channel(s)                               : 6 channels
Channel layout                           : C L R Ls Rs LFE
Sampling rate                            : 48.0 kHz
Frame rate                               : 93.750 FPS (512 SPF)
Bit depth                                : 16 bits
Compression mode                         : Lossy
Stream size                              : 1.23 GiB (9%)
Title                                    : , 6 ch, 1509 Кбт/с
Language                                 : English
Default                                  : No
Forced                                   : No

Text #1
ID                                       : 4
Format                                   : UTF-8
Codec ID                                 : S_TEXT/UTF8
Codec ID/Info                            : UTF-8 Plain Text
Duration                                 : 1 h 55 min
Bit rate                                 : 1 b/s
Count of elements                        : 42
Stream size                              : 1.33 KiB (0%)
Title                                    : Forced
Language                                 : Ukrainian
Default                                  : Yes
Forced                                   : No

Text #2
ID                                       : 5
Format                                   : UTF-8
Codec ID                                 : S_TEXT/UTF8
Codec ID/Info                            : UTF-8 Plain Text
Duration                                 : 1 h 55 min
Bit rate                                 : 81 b/s
Count of elements                        : 1468
Stream size                              : 68.9 KiB (0%)
Title                                    : Full [iTunes]
Language                                 : Ukrainian
Default                                  : No
Forced                                   : No

Text #3
ID                                       : 6
Format                                   : UTF-8
Codec ID                                 : S_TEXT/UTF8
Codec ID/Info                            : UTF-8 Plain Text
Duration                                 : 1 h 55 min
Bit rate                                 : 54 b/s
Count of elements                        : 1389
Stream size                              : 46.4 KiB (0%)
Title                                    : Full [iTunes]
Language                                 : English
Default                                  : No
Forced                                   : No
Скріншоти










Джерело: &
Особиста оцінка: 6 - третій сорт - не брак


Золотий реліз (завантажене не впливає на рейтинг)
 Трекер:    Зареєстрований   

Завантажити / скачати мультфільм українською



відео для новачків



 Зареєстрований:   2019-04-17 20:12
 Розмір:   13.77 GB 
 Оцінка мультфільму:   9.6/10 (Голосів: 57)
   
Інші релізи
   Людина-павук: Навколо всесвіту / Spider-Man: Into the Spider-Verse (2018) 1080p H.265 Ukr/Eng | Sub Ukr/Eng -Star-Lord-  15 / 0   7.99 GB   2019-04-22 11:17 
   Людина-павук: Навколо всесвіту / Spider-Man: Into the Spider-Verse (2018) UHD Remux 4K 2160p HDR H.265 Ukr/Eng | Sub Ukr/Eng antik_2008  6 / 0   42.57 GB   2019-04-17 21:51 
   Людина-павук: Навколо всесвіту / Spider-Man: Into the Spider-Verse (2018) Remux 1080p Ukr/Eng | Sub Ukr/Eng antik_2008  7 / 0   21.57 GB   2019-04-17 20:14 
   Людина-павук: Навколо всесвіту / Spider-Man: Into the Spider-Verse (2018) Ukr/Eng antik_2008  26 / 1   2.38 GB   2019-04-17 20:13 
   Людина-павук: Навколо всесвіту / Spider-Man: Into the Spider-Verse (2018) antik_2008  18 / 0   1.64 GB   2019-04-17 20:10 
   Людина-павук: Навколо всесвіту / Spider-Man: Into the Spider-Verse (2018) AVC Ukr/Eng | Sub Ukr/Eng 11FrYkT  42 / 0   2.39 GB   2019-04-14 16:39 
   Людина-павук: Навколо всесвіту / Spider-Man: Into the Spider-Verse (2018) 720p Ukr/Eng | Sub Ukr/Eng 11FrYkT  22 / 1   6.13 GB   2019-04-13 19:02 
   Людина-павук: Навколо всесвіту / Spider-Man: Into the Spider-Verse (2018) UHD 4K 2160p H.265 Ukr/Eng | Sub Ukr/Eng Bariska  8 / 0   15.42 GB   2019-03-12 01:14 
Ronaldo_KS 
Новенький


З нами з: 14.05.10
Востаннє: 18.06.19
Повідомлень: 22

2019-03-12 09:32  
Третій сорт? Wide grin
fridomfighter 
Свій


З нами з: 01.12.16
Востаннє: 06.05.19
Повідомлень: 75

2019-03-12 10:15  
Третій сорт, троль
Alex Smith 
Новенький


З нами з: 18.04.17
Востаннє: 17.06.19
Повідомлень: 6

2019-03-12 18:28  
Невже дочекався? Rolleyes (1)
Аудiо з iTunes?

antik_2008 
Релізер і модератор відео


З нами з: 20.10.08
Востаннє: 17.06.19
Повідомлень: 2052

2019-03-12 19:08  
Alex Smith написано:

Невже дочекався?
Аудiо з iTunes?

Megogo

vovang6 
Поважний учасник


З нами з: 27.08.12
Востаннє: 17.06.19
Повідомлень: 197

2019-03-12 20:54  
Круто! Мені сподобався, прикольний візуал та стиль. Дітям теж сподобався 8/10.
KeryaS 
Свій


З нами з: 01.09.14
Востаннє: 18.06.19
Повідомлень: 146

2019-03-12 21:40  
Мультфільм розчарував - дивний візуальний стиль, "рвана" розповідь, перебір з електронною музикою. Додивлявся перемотуючи, а 7-ми річна донька додивилася із задоволенням.
Garikafterwork 
Новенький


З нами з: 02.10.12
Востаннє: 14.06.19
Повідомлень: 10

2019-03-16 15:13  
Мульт бомбезний! Крута графіка. Цікавий комікс-сюжет. Усе на найвищому рівні.
Sidewaves 
Новенький


З нами з: 04.03.15
Востаннє: 17.03.19
Повідомлень: 3

2019-03-17 17:45  
Непоганий мульт, хоч це рване малювання й не дуже зайшло. І ще не зрозумів чого Кінгпіна перевели як ЦаБе чи якось так, думав наші локалізатори вже навчилися не перекладати те, що не треба перекладати. Дякую за роздачу!
trofum911 
Поважний учасник


З нами з: 31.01.12
Востаннє: 16.06.19
Повідомлень: 164

2019-03-17 20:43  
Не підкажете, хороший звук буде?
bagdalaz 
Новенький


З нами з: 06.03.10
Востаннє: 12.06.19
Повідомлень: 14

2019-03-19 21:04  
Тут локалізований відеоряд?
vash1 
Поважний учасник


З нами з: 16.03.16
Востаннє: 18.06.19
Повідомлень: 196

2019-03-20 00:22  
trofum911 написано:
Не підкажете, хороший звук буде?

antik_2008 
Релізер і модератор відео


З нами з: 20.10.08
Востаннє: 17.06.19
Повідомлень: 2052

2019-04-17 20:12  
Реліз оновлено на кращу якість звуку

манагер 
Новенький


З нами з: 12.06.15
Востаннє: 17.06.19
Повідомлень: 1

2019-04-26 22:02  
Несподівано неймовірний мультфільм. Так, рваний відеоряд. Але саме така надзвичайна режисура і оформлення роблять його надзвичайним, як справжній комікс
Ваш часовий пояс: GMT + 2 Години

Нова тема   Відповісти