Аквамен / Aquaman [Open Matte] (2018) 1080p Ukr/Eng | Sub Eng

Нові коментарі

Нова тема   Відповісти
Автор Повідомлення
Anonymous 







2019-03-11 23:41  
Аквамен / Aquaman [Open Matte] (2018) 1080p Ukr/Eng | Sub Eng

Аквамен / Aquaman [Open Matte] (2018) 1080p Ukr/Eng | Sub Eng


Жанр: пригодницький, фантастика, екшн
Країна: США, Австралія





Кінокомпанія: Warner Bros., DC Entertainment, DC Comics
Режисер: Джеймс Ван
Актори: Джейсон Момоа, Ембер Герд, Віллем Дефо, Патрік Вілсон, Дольф Лундґрен, Ях'я Абдул-Матін II, Ніколь Кідман, Ґрем Мактавіш, Джимон Гунсу, Рендолл Парк, Джулі Ендрюс, Лі Воннелл

Сюжет:
Кожен із нас може хоч на трішки змінити світ, якщо того захоче. Але серед нас є навіть ті, яким на долі написано вплинути на майбутнє всього людства. Артур Каррі має вельми незвичайну пару батьків: його тато був працівником маяка, а мати – королевою Атлантиди на ім'я Атланна, яку вигнали з царства. Хлопчик виріс, не знаючи про свої сили. Він умів довго затримувати дихання під водою та розмовляв з рибами, але не підозрював, що може зайняти трон Атлантиди. Зараз його тримає зведений брат Артура на ім'я Орм. На жаль, цей хлопець не має добрих намірів до надводного світу та збирається його знищити. Артур, як дитя двох світів, повинен об'єднати їх і не дати Орму зруйнувати цей крихкий мир.


Тривалість: 02:23:18
Якість: 1080p [Open Matte]
Відео:
кодек:
розмір кадру: 1920x1080
бітрейт: 4896 кб/с

Аудіо # 1:
мова: українська
переклад: професійний дубльований
кодек: 2.0
бітрейт: 127 кб/с

Аудіо # 2:
мова: англійська
переклад: оригінал
кодек: E- 5.1
бітрейт: 576 кб/с

Джерело озвучення:


Субтитри (Forced):
мова: українська
тип: програмні (м'які)
формат: *.srt

Субтитри:
мова: англійська
тип: програмні (м'які)
формат: *.srt
Info
Код:
General
Complete name                            : Aquaman (2018) [Open Matte] 1080p [UKR.ENG] [Video_Hurtom].
Format                                   :
Format version                           : Version 4
File size                                : 5.61 GiB
Duration                                 : 2 h 23 min
Overall bit rate                         : 5 606 kb/s
Movie name                               : Aquaman (2018) [Open Matte] 1080p [UKR.ENG] [Video_Hurtom]
Encoded date                             : UTC 2019-03-11 21:28:13
Writing application                      : v30.1.0 ('Forever And More') 64-bit
Writing library                          : libebml v1.3.6 + v1.4.9

Video
ID                                       : 1
Format                                   : AVC
Format/Info                              : Advanced Video Codec
Format profile                           : [email protected]
Format settings                          : CABAC / 4 Ref Frames
Format settings, CABAC                   : Yes
Format settings, RefFrames               : 4 frames
Codec ID                                 : V_MPEG4/ISO/AVC
Duration                                 : 2 h 23 min
Bit rate                                 : 4 901 kb/s
Width                                    : 1 920 pixels
Height                                   : 1 080 pixels
Display aspect ratio                     : 16:9
Frame rate mode                          : Constant
Frame rate                               : 23.976 (24000/1001) FPS
Color space                              : YUV
Chroma subsampling                       : 4:2:0
Bit depth                                : 8 bits
Scan type                                : Progressive
Bits/(Pixel*Frame)                       : 0.099
Stream size                              : 4.91 GiB (87%)
Title                                    : Aquaman.2018.Open.Matte.1080p..DUB.EniaHD
Language                                 : English
Default                                  : Yes
Forced                                   : No

Audio #1
ID                                       : 2
Format                                   : LC
Format/Info                              : Advanced Audio Codec Low Complexity
Codec ID                                 : A_AAC-2
Duration                                 : 2 h 23 min
Bit rate                                 : 127 kb/s
Channel(s)                               : 2 channels
Channel layout                           : L R
Sampling rate                            : 44.1 kHz
Frame rate                               : 43.066 FPS (1024 SPF)
Compression mode                         : Lossy
Stream size                              : 130 MiB (2%)
Title                                    : 2.0 @ 128 kbps - DUB, iTunes
Language                                 : Ukrainian
Default                                  : Yes
Forced                                   : No

Audio #2
ID                                       : 3
Format                                   : E-AC-3 JOC
Format/Info                              : Enhanced AC-3 with Joint Object Coding
Commercial name                          : Dolby Digital Plus with Dolby Atmos
Codec ID                                 : A_EAC3
Duration                                 : 2 h 23 min
Bit rate mode                            : Constant
Bit rate                                 : 576 kb/s
Channel(s)                               : 6 channels
Channel layout                           : L R C LFE Ls Rs
Sampling rate                            : 48.0 kHz
Frame rate                               : 31.250 FPS (1536 SPF)
Compression mode                         : Lossy
Stream size                              : 590 MiB (10%)
Title                                    : E- EX + Atmos 5.1 @ 576 kbps - Original
Language                                 : English
Service kind                             : Complete Main
Default                                  : No
Forced                                   : No
Complexity index                         : 16
Number of dynamic objects                : 15
Bed channel count                        : 1 channel
Bed channel configuration                : LFE

Text #1
ID                                       : 4
Format                                   : UTF-8
Codec ID                                 : S_TEXT/UTF8
Codec ID/Info                            : UTF-8 Plain Text
Duration                                 : 2 h 22 min
Bit rate                                 : 1 b/s
Count of elements                        : 32
Stream size                              : 1.54 KiB (0%)
Title                                    : Forced
Language                                 : Ukrainian
Default                                  : Yes
Forced                                   : No

Text #2
ID                                       : 5
Format                                   : UTF-8
Codec ID                                 : S_TEXT/UTF8
Codec ID/Info                            : UTF-8 Plain Text
Duration                                 : 2 h 14 min
Bit rate                                 : 38 b/s
Count of elements                        : 1132
Stream size                              : 37.5 KiB (0%)
Title                                    : Full
Language                                 : English
Default                                  : No
Forced                                   : No
Скріншоти








Джерело:
Особиста оцінка: 9 - давно не бачив настільки якісне кіно


 Трекер:    Зареєстрований   

Завантажити / скачати фільм українською



відео для новачків



 Зареєстрований:   2019-03-11 23:41
 Розмір:   5.61 GB 
 Оцінка фільму:   9.2/10 (Голосів: 18)
   
Інші релізи
   Аквамен / Aquaman [IMAX Edition] (2018) UHD Remux 4K 2160p HDR H.265 Ukr/Eng | Sub Eng antik_2008  5 / 0   57.25 GB   2019-07-09 18:19 
   Аквамен / Aquaman (2018) Remux 1080p Ukr/Eng | Sub Eng antik_2008  2 / 0   22.72 GB   2019-07-09 16:34 
   Аквамен / Aquaman [IMAX Edition] (2018) Ukr/Eng antik_2008  4 / 1   2.98 GB   2019-07-09 16:31 
   Аквамен / Aquaman [IMAX Edition] (2018) 1080p Ukr/Eng | Sub Eng antik_2008  2 / 0   19.31 GB   2019-07-09 10:10 
   Аквамен / Aquaman (2018) 1080p Ukr/Eng | Sub Eng antik_2008  7 / 0   8.34 GB   2019-07-09 10:05 
   Аквамен / Aquaman [IMAX Edition] (2018) Remux 1080p Ukr/Eng | Sub Eng antik_2008  1 / 0   26.78 GB   2019-07-09 10:03 
   Аквамен / Aquaman (2018) AVC (IMAX Edition) Ukr/Eng | Sub Eng 11FrYkT  11 / 0   3.07 GB   2019-07-08 07:51 
   Аквамен / Aquaman (2018) 720p (IMAX Edition) Ukr/Eng | Sub Eng 11FrYkT  7 / 0   8.07 GB   2019-07-08 07:45 
   Аквамен / Aquaman (2018) (IMAX Edition) uafilm.tv  15 / 0   1.5 GB   2019-03-24 14:03 
   Аквамен / Aquaman [IMAX Edition] (2018) 1080p H.265 Ukr/Eng | Sub Eng -Star-Lord-  7 / 0   10.77 GB   2019-03-17 13:40 
   Аквамен / Aquaman (2018) UHD 4K 2160p HDR H.265 Ukr/Eng | Sub Eng antik_2008  8 / 0   14.4 GB   2019-03-07 11:37 
   Аквамен / Aquaman (2018) AVC Ukr| Sub Kor Kinomania.studio  1 / 0   1.86 GB   2019-02-14 20:27 
Nahalist 
Поважний учасник


З нами з: 12.12.13
Востаннє: 13.11.19
Повідомлень: 203

2019-06-29 13:33  
це хоть справжній ОМ??
Що вам заважає робити порівняльні скріни 2.35:1 vs OM ? Щоб люди бачили різницю.

Purdun 
Свій


З нами з: 05.09.13
Востаннє: 10.09.19
Повідомлень: 114

2019-08-07 18:36  
Nahalist написано:

це хоть справжній ОМ??
Що вам заважає робити порівняльні скріни 2.35:1 vs OM ? Щоб люди бачили різницю.


Особисто мені здається, що справжній, але я не подивився цю роздачу (хоч і скачав)
Мені знайомий підкинув BD rip 1080p, там бітрейт близько 8000, а то тут для 1080р такий бітрейт смішний, воно то ясно, бо WEB-ка. Той, що в мене, то Блюрик лише з деякими вставками WEB-ки, там, де проскакують з полосами кадри, то довелося вставляти з цього. А тут не дуже якість. Коли що, то дам посилання в приват, пишіть, кому треба норм відеоряд.

Vasylko1996 
Новенький


З нами з: 10.09.19
Востаннє: 29.10.19
Повідомлень: 1

2019-09-30 14:25  
Хороший фільм ! Рекомендую!
Ваш часовий пояс: GMT + 2 Години

Нова тема   Відповісти