Фаворитка / The Favourite (2018) 1080p Ukr/Eng | Sub Ukr/Eng

Нові коментарі

Нова тема   Відповісти
Автор Повідомлення
staf777 
Відео Гуртом - підтримка та поширення
Відео Гуртом - підтримка та поширення


З нами з: 16.11.16
Востаннє: 24.04.19
Повідомлень: 2284

2019-03-11 10:02  
Фаворитка / The Favourite (2018) 1080p Ukr/Eng | Sub Ukr/Eng

Фаворитка / The Favourite (2018) 1080p Ukr/Eng | Sub Ukr/Eng


Жанр: біографічний, драма, історичний, комедія
Країна: Ірландія, Велика Британія, США



Кінокомпанія: Element Pictures, Scarlet Films, Film4
Режисер: Йоргос Лантімос
Актори: Олівія Колман, Рейчел Вайс, Емма Стоун, Джо Елвін, Ніколас Холт

Сюжет:
Події фільму розгортаються в 18 столітті при дворі королеви Анни, чиї відносини з радницею і таємною коханкою герцогинею Мальборо Сарою Черчілль перевертаються, коли в замок прибуває молодша кузина герцогині Ебігейл Мешем. Баланс сил між жінками змінюється, поки вони борються за увагу королеви.


Тривалість: 01:59:29
Якість: 1080p
Відео:
кодек:
розмір кадру: 1920x1040
бітрейт: 10 Mб/с

Аудіо # 1:
мова: українська
переклад: професійний дубльований
кодек: 2.0
бітрейт: 192 кб/с

Аудіо # 2:
мова: англійська
переклад: оригінал
кодек: 5.1
бітрейт: 1509 кб/с

Субтитри # 1-2: (Forced, Full)
мова: українська
тип: програмні (м'які)
формат: *.srt

Субтитри # 3-4: (Full, SDH)
мова: англійська
тип: програмні (м'які)
формат: *.srt
Info
General
Unique ID : 137851066774351254111790832977457514272 (0x67B52655240830F386D106C750210720)
Complete name : S:\» HD українською » Фільми в HD\The Favourite (2018) 1080p [UKR_ENG] [Hurtom].
Format :
Format version : Version 4
File size : 9.77 GiB
Duration : 1 h 59 min
Overall bit rate : 11.7 Mb/s
Movie name : The Favourite (2018) 1080p [UKR_ENG] [Hurtom]
Encoded date : UTC 2019-03-11 07:20:58
Writing application : v30.1.0 ('Forever And More') 64-bit
Writing library : libebml v1.3.6 + v1.4.9
Cover : Yes
Attachments : cover.jpg

Video
ID : 1
Format : AVC
Format/Info : Advanced Video Codec
Format profile : [email protected]
Format settings : CABAC / 4 Ref Frames
Format settings, CABAC : Yes
Format settings, ReFrames : 4 frames
Codec ID : V_MPEG4/ISO/AVC
Duration : 1 h 59 min
Bit rate : 10 000 kb/s
Width : 1 920 pixels
Height : 1 040 pixels
Display aspect ratio : 1.85:1
Frame rate mode : Constant
Frame rate : 23.976 (24000/1001) FPS
Color space : YUV
Chroma subsampling : 4:2:0
Bit depth : 8 bits
Scan type : Progressive
Bits/(Pixel*Frame) : 0.209
Stream size : 8.35 GiB (85%)
Writing library : core 157 r2935 545de2f
Encoding settings : cabac=1 / ref=4 / deblock=1:-3:-3 / analyse=0x3:0x113 / me=umh / subme=11 / psy=1 / psy_rd=1.00:0.15 / mixed_ref=1 / me_range=64 / chroma_me=1 / trellis=2 / 8x8dct=1 / cqm=0 / deadzone=21,11 / fast_pskip=1 / chroma_qp_offset=-3 / threads=8 / lookahead_threads=2 / sliced_threads=0 / nr=0 / decimate=0 / interlaced=0 / bluray_compat=0 / constrained_intra=0 / bframes=10 / b_pyramid=2 / b_adapt=2 / b_bias=0 / direct=3 / weightb=1 / open_gop=0 / weightp=2 / keyint=240 / keyint_min=23 / scenecut=40 / intra_refresh=0 / rc_lookahead=60 / rc=2pass / mbtree=1 / bitrate=10000 / ratetol=1.0 / qcomp=0.60 / qpmin=0 / qpmax=69 / qpstep=4 / cplxblur=20.0 / qblur=0.5 / vbv_maxrate=62500 / vbv_bufsize=50000 / nal_hrd=none / filler=0 / ip_ratio=1.40 / aq=3:0.80
Language : English
Default : Yes
Forced : Yes

Audio #1
ID : 2
Format : AC-3
Format/Info : Audio Coding 3
Commercial name : Dolby Digital
Codec ID : A_AC3
Duration : 1 h 59 min
Bit rate mode : Constant
Bit rate : 192 kb/s
Channel(s) : 2 channels
Channel layout : L R
Sampling rate : 48.0 kHz
Frame rate : 31.250 FPS (1536 SPF)
Bit depth : 16 bits
Compression mode : Lossy
Stream size : 164 MiB (2%)
Title : 2.0 @ 192 kbps
Language : Ukrainian
Service kind : Complete Main
Default : Yes
Forced : Yes

Audio #2
ID : 3
Format :
Format/Info : Digital Theater Systems
Codec ID : A_DTS
Duration : 1 h 59 min
Bit rate mode : Constant
Bit rate : 1 509 kb/s
Channel(s) : 6 channels
Channel layout : C L R Ls Rs LFE
Sampling rate : 48.0 kHz
Frame rate : 93.750 FPS (512 SPF)
Bit depth : 24 bits
Compression mode : Lossy
Stream size : 1.26 GiB (13%)
Language : English
Default : No
Forced : No

Text #1
ID : 4
Format : UTF-8
Codec ID : S_TEXT/UTF8
Codec ID/Info : UTF-8 Plain Text
Duration : 1 h 57 min
Bit rate : 0 b/s
Count of elements : 11
Stream size : 466 Bytes (0%)
Title : Forced
Language : Ukrainian
Default : Yes
Forced : Yes

Text #2
ID : 5
Format : UTF-8
Codec ID : S_TEXT/UTF8
Codec ID/Info : UTF-8 Plain Text
Duration : 1 h 57 min
Bit rate : 89 b/s
Count of elements : 1319
Stream size : 76.9 KiB (0%)
Title : Full
Language : Ukrainian
Default : No
Forced : No

Text #3
ID : 6
Format : UTF-8
Codec ID : S_TEXT/UTF8
Codec ID/Info : UTF-8 Plain Text
Duration : 1 h 58 min
Bit rate : 57 b/s
Count of elements : 1607
Stream size : 49.7 KiB (0%)
Title : SDH
Language : English
Default : No
Forced : No

Text #4
ID : 7
Format : UTF-8
Codec ID : S_TEXT/UTF8
Codec ID/Info : UTF-8 Plain Text
Duration : 1 h 52 min
Bit rate : 50 b/s
Count of elements : 1343
Stream size : 42.0 KiB (0%)
Title : Full
Language : English
Default : No
Forced : No

Menu
00:00:00.000 : en:00:00:00.000
00:18:36.490 : en:00:18:36.490
00:40:35.475 : en:00:40:35.475
00:46:44.385 : en:00:46:44.385
01:06:23.188 : en:01:06:23.188
01:15:12.216 : en:01:15:12.216
01:28:32.682 : en:01:28:32.682
01:36:55.768 : en:01:36:55.768
Підтримати купівлю інших фільмів можна тут.

Над доріжкою працювали: Sando7, AngryBirdsUA.



Джерело:
Фаворитка / The Favourite (2018) 1080p Ukr/Eng | Sub Ukr/Eng Фаворитка / The Favourite (2018) 1080p Ukr/Eng | Sub Ukr/Eng


 Трекер:    Зареєстрований   

Завантажити / скачати фільм українською



відео для новачків



 Зареєстрований:   2019-03-11 18:34
 Розмір:   9.77 GB 
 Оцінка фільму:   8.1/10 (Голосів: 18)
   
Інші релізи
   Фаворитка / The Favourite (2018) Remux 1080p Ukr/Eng | Sub Ukr/Eng antik_2008  9 / 0   28.65 GB   2019-03-17 23:47 
   Фаворитка / The Favourite (2018) Ukr/Eng antik_2008  64 / 0   2.06 GB   2019-03-12 01:21 
   Фаворитка / The Favourite (2018) 1080p H.265 Ukr/Eng | Sub Ukr/Eng -Star-Lord-  13 / 0   6.7 GB   2019-03-11 00:56 
   Фаворитка / The Favourite (2018) 720p Ukr/Eng | Sub Ukr/Eng 11FrYkT  34 / 0   5.33 GB   2019-03-10 22:52 
   Фаворитка / The Favourite (2018) AVC Ukr/Eng | Sub Ukr/Eng 11FrYkT  55 / 0   2.18 GB   2019-03-10 22:44 
bot 
робот


З нами з: 30.09.07
Востаннє: 26.05.05
Повідомлень: 21239

2019-03-11 18:27  
Тему перенесено з Анонси релізів до форуму Фільми в HD


staf777

Ваш часовий пояс: GMT + 2 Години

Нова тема   Відповісти