Світанок планети мавп / Dawn of the Planet of the Apes (2014) 1080p H.265 Ukr/Eng | Sub Ukr/Eng

Нові коментарі

Нова тема   Відповісти
Автор Повідомлення
-Star-Lord- 
VIP


З нами з: 09.08.18
Востаннє: 18.04.19
Повідомлень: 735

2019-03-11 01:17  
Світанок планети мавп / Dawn of the Planet of the Apes (2014) 1080p H.265 Ukr/Eng | Sub Ukr/Eng

Світанок планети мавп / Dawn of the Planet of the Apes (2014) 1080p H.265 Ukr/Eng | Sub Ukr/Eng


Жанр: фантастика, бойовик, пригодницький, драма
Країна: США
Кінокомпанія: Chernin Entertainment, 20th Century Fox
Режисер: Метт Рівз
Актори: Джейсон Кларк, Енді Серкіс, Гарі Олдмен, Джуді Грір, Кері Расселл

Сюжет:
Чисельність генетично модифікованих мавп, очолюваних Цезарем, продовжує збільшуватися, але мавпам погрожують люди, яким вдалося вижити під час жахливої ​​епідемії десятирічної давності. Спочатку між суперниками встановлюється крихкий мир, але він виявляється недовговічним. Мавпи і люди знаходяться на межі війни, в ході якої стане зрозуміло, хто з них в майбутньому стане безроздільно правити планетою.

Тривалість: 02:10:24
Якість:
Відео:
кодек: H.265 (HEVC)
розмір кадру: 1920 x 1036
бітрейт: 6 691 кб/с
бітова глибина: 10 біт
Увага! Перед завантаженням переконайтесь, що ваш пристрій відтворення (та/або ПЗ) підтримує H.265 (HEVC)

Аудіо # 1:
мова: українська
переклад: професійний дубльований
кодек: AC-3 5.1
бітрейт: 448 кб/с

Аудіо # 2:
мова: англійська
переклад: оригінал
кодек: AC-3 5.1
бітрейт: 448 кб/с

Субтитри # 1:
мова: українська (Forced),
тип: програмні (м'які)
формат: *.srt

Субтитри # 2:
мова: українська (Full),
тип: програмні (м'які)
формат: *.srt

Субтитри # 3:
мова: англійська (forced),
тип: програмні (м'які)
формат: *.srt

Субтитри # 4:
мова: англійська (Full),
тип: програмні (м'які)
формат: *.srt


Info
Код:
General
Unique ID                                : 179992979643166078403723159304621691911 (0x8769630DACFEC1E373518D7C912A9407)
Complete name                            : F:\Video\Dawn of the Planet of the Apes (2014) 1080p H.265 [UKR_ENG] [Hurtom].
Format                                   :
Format version                           : Version 4 / Version 2
File size                                : 6.91 GiB
Duration                                 : 2 h 10 min
Overall bit rate                         : 7 590 kb/s
Movie name                               : Dawn of the Planet of the Apes (2014)
Encoded date                             : UTC 2019-02-28 12:33:21
Writing application                      : v20.0.0 ('I Am The Sun') 64-bit
Writing library                          : libebml v1.3.5 + v1.4.8
Cover                                    : Yes
Attachments                              : Cover.jpg

Video
ID                                       : 1
Format                                   : HEVC
Format/Info                              : High Efficiency Video Coding
Format profile                           : Main [email protected]@High
Codec ID                                 : V_MPEGH/ISO/HEVC
Duration                                 : 2 h 10 min
Bit rate                                 : 6 691 kb/s
Width                                    : 1 920 pixels
Height                                   : 1 036 pixels
Display aspect ratio                     : 1.85:1
Frame rate mode                          : Constant
Frame rate                               : 23.976 (24000/1001) FPS
Color space                              : YUV
Chroma subsampling                       : 4:2:0
Bit depth                                : 10 bits
Bits/(Pixel*Frame)                       : 0.140
Stream size                              : 6.09 GiB (88%)
Title                                    : Dawn of the Planet of the Apes (2014)
Writing library                          : x265 2.9+9-f74003e88622:[Windows][GCC 8.2.0][64 bit] 10bit
Encoding settings                        : cpuid=1111039 / frame-threads=13 / numa-pools=12 / wpp / no-pmode / no-pme / no-psnr / no-ssim / log-level=3 / input-csp=1 / input-res=1920x1036 / interlace=0 / total-frames=0 / level-idc=41 / high-tier=1 / uhd-bd=0 / ref=5 / allow-non-conformance / no-repeat-headers / annexb / no-aud / no-hrd / info / hash=0 / no-temporal-layers / no-open-gop / min-keyint=23 / keyint=240 / gop-lookahead=0 / bframes=8 / b-adapt=2 / b-pyramid / bframe-bias=0 / rc-lookahead=60 / lookahead-slices=4 / scenecut=40 / radl=0 / no-intra-refresh / ctu=64 / min-cu-size=8 / rect / no-amp / max-tu-size=32 / tu-inter-depth=3 / tu-intra-depth=3 / limit-tu=0 / rdoq-level=2 / dynamic-rd=0.00 / no-ssim-rd / signhide / no-tskip / nr-intra=0 / nr-inter=0 / no-constrained-intra / no-strong-intra-smoothing / max-merge=3 / limit-refs=3 / no-limit-modes / me=3 / subme=7 / merange=57 / temporal-mvp / weightp / weightb / no-analyze-src-pics / deblock=-3:-3 / no-sao / no-sao-non-deblock / rd=6 / no-early-skip / rskip / no-fast-intra / no-tskip-fast / no-cu-lossless / no-b-intra / no-splitrd-skip / rdpenalty=0 / psy-rd=2.00 / psy-rdoq=0.00 / no-rd-refine / no-lossless / cbqpoffs=0 / crqpoffs=0 / rc=crf / crf=18.5 / qcomp=0.70 / qpstep=4 / stats-write=0 / stats-read=0 / vbv-maxrate=50000 / vbv-bufsize=50000 / vbv-init=0.9 / crf-max=30.0 / crf-min=0.0 / ipratio=1.40 / pbratio=1.30 / aq-mode=2 / aq-strength=1.00 / cutree / zone-count=0 / no-strict-cbr / qg-size=32 / no-rc-grain / qpmax=69 / qpmin=0 / no-const-vbv / sar=1 / overscan=0 / videoformat=5 / range=0 / colorprim=1 / transfer=1 / colormatrix=1 / chromaloc=0 / display-window=0 / max-cll=0,0 / min-luma=0 / max-luma=1023 / log2-max-poc-lsb=8 / vui-timing-info / vui-hrd-info / slices=1 / no-opt-qp-pps / no-opt-ref-list-length-pps / no-multi-pass-opt-rps / scenecut-bias=0.05 / no-opt-cu-delta-qp / aq-motion / no-hdr / no-hdr-opt / no-dhdr10-opt / no-idr-recovery-sei / analysis-reuse-level=5 / scale-factor=0 / refine-intra=0 / refine-inter=0 / refine-mv=0 / no-limit-sao / ctu-info=0 / no-lowpass-dct / refine-mv-type=0 / copy-pic=1 / max-ausize-factor=1.0 / no-dynamic-refine / no-single-sei
Language                                 : English
Default                                  : Yes
Forced                                   : No
Color range                              : Limited
Color primaries                          : BT.709
Transfer characteristics                 : BT.709
Matrix coefficients                      : BT.709

Audio #1
ID                                       : 2
Format                                   : AC-3
Format/Info                              : Audio Coding 3
Codec ID                                 : A_AC3
Duration                                 : 2 h 10 min
Bit rate mode                            : Constant
Bit rate                                 : 448 kb/s
Channel(s)                               : 6 channels
Channel positions                        : Front: L C R, Side: L R, LFE
Sampling rate                            : 48.0 kHz
Frame rate                               : 31.250 FPS (1536 SPF)
Bit depth                                : 16 bits
Compression mode                         : Lossy
Stream size                              : 418 MiB (6%)
Title                                    : ПД - Blu-Ray
Language                                 : Ukrainian
Service kind                             : Complete Main
Default                                  : Yes
Forced                                   : Yes

Audio #2
ID                                       : 3
Format                                   : AC-3
Format/Info                              : Audio Coding 3
Codec ID                                 : A_AC3
Duration                                 : 2 h 10 min
Bit rate mode                            : Constant
Bit rate                                 : 448 kb/s
Channel(s)                               : 6 channels
Channel positions                        : Front: L C R, Side: L R, LFE
Sampling rate                            : 48.0 kHz
Frame rate                               : 31.250 FPS (1536 SPF)
Bit depth                                : 16 bits
Compression mode                         : Lossy
Stream size                              : 418 MiB (6%)
Title                                    : Original
Language                                 : English
Service kind                             : Complete Main
Default                                  : No
Forced                                   : No

Text #1
ID                                       : 4
Format                                   : UTF-8
Codec ID                                 : S_TEXT/UTF8
Codec ID/Info                            : UTF-8 Plain Text
Duration                                 : 1 h 40 min
Bit rate                                 : 6 b/s
Count of elements                        : 121
Stream size                              : 4.56 KiB (0%)
Title                                    : Forced
Language                                 : Ukrainian
Default                                  : Yes
Forced                                   : Yes

Text #2
ID                                       : 5
Format                                   : UTF-8
Codec ID                                 : S_TEXT/UTF8
Codec ID/Info                            : UTF-8 Plain Text
Duration                                 : 1 h 57 min
Bit rate                                 : 41 b/s
Count of elements                        : 877
Stream size                              : 35.4 KiB (0%)
Title                                    : Full
Language                                 : Ukrainian
Default                                  : No
Forced                                   : No

Text #3
ID                                       : 6
Format                                   : UTF-8
Codec ID                                 : S_TEXT/UTF8
Codec ID/Info                            : UTF-8 Plain Text
Duration                                 : 1 h 40 min
Bit rate                                 : 3 b/s
Count of elements                        : 127
Stream size                              : 2.71 KiB (0%)
Title                                    : forced
Language                                 : English
Default                                  : No
Forced                                   : No

Text #4
ID                                       : 7
Format                                   : UTF-8
Codec ID                                 : S_TEXT/UTF8
Codec ID/Info                            : UTF-8 Plain Text
Duration                                 : 1 h 57 min
Bit rate                                 : 23 b/s
Count of elements                        : 857
Stream size                              : 20.2 KiB (0%)
Title                                    : Full
Language                                 : English
Default                                  : No
Forced                                   : No

Menu
00:00:00.000                             : :Chapter 01
00:03:21.159                             : :Chapter 02
00:07:34.912                             : :Chapter 03
00:12:36.547                             : :Chapter 04
00:16:23.565                             : :Chapter 05
00:18:47.042                             : :Chapter 06
00:21:52.477                             : :Chapter 07
00:25:26.691                             : :Chapter 08
00:29:45.867                             : :Chapter 09
00:31:50.617                             : :Chapter 10
00:36:43.743                             : :Chapter 11
00:39:07.553                             : :Chapter 12
00:40:57.163                             : :Chapter 13
00:44:12.232                             : :Chapter 14
00:48:11.722                             : :Chapter 15
00:50:31.528                             : :Chapter 16
00:53:48.016                             : :Chapter 17
00:57:25.316                             : :Chapter 18
01:01:18.466                             : :Chapter 19
01:02:35.376                             : :Chapter 20
01:04:24.068                             : :Chapter 21
01:06:21.727                             : :Chapter 22
01:09:31.333                             : :Chapter 23
01:13:56.974                             : :Chapter 24
01:17:17.924                             : :Chapter 25
01:20:53.390                             : :Chapter 26
01:23:28.753                             : :Chapter 27
01:26:08.997                             : :Chapter 28
01:28:19.252                             : :Chapter 29
01:33:24.390                             : :Chapter 30
01:35:53.122                             : :Chapter 31
01:38:38.621                             : :Chapter 32
01:40:42.536                             : :Chapter 33
01:44:07.574                             : :Chapter 34
01:46:05.567                             : :Chapter 35
01:47:54.468                             : :Chapter 36
01:52:13.977                             : :Chapter 37
01:56:27.480                             : :Chapter 38
02:00:31.015                             : :Chapter 39
02:01:35.579                             : :Chapter 40
Світлини





Джерело: &
Особиста оцінка: 10 - без зайвих вагань рекомендую всім!


 Трекер:    Зареєстрований   

Завантажити / скачати фільм українською



відео для новачків



 Зареєстрований:   2019-03-11 01:17
 Розмір:   6.91 GB 
 Оцінка фільму:   9.3/10 (Голосів: 4)
   
Інші релізи
   Світанок планети мавп / Dawn of the Planet of the Apes (2014) Remux 1080p Ukr/Eng | Sub Ukr/Eng Argentum  0 / 0   21.99 GB   2017-11-07 17:21 
   Світанок планети мавп / Dawn of the Planet of the Apes (2014) 360p DmitryA  0 / 0   1.12 GB   2014-12-10 17:18 
   Світанок планети мавп / Dawn of the Planet of the Apes (2014) 1080p 3D [Half OverUnder] Ukr/Eng | Sub Eng 3d_reliz  1 / 0   14.05 GB   2014-12-07 19:47 
   Світанок планети мавп / Dawn of the Planet of the Apes (2014) DVD9 / R5 / Eng / Rus / Hun / Ukr | Sub Eng / Rus / Hun / Est / Lav / Lit / Ukr Bochys  0 / 0   7.2 GB   2014-11-16 15:03 
   Світанок планети мавп / Dawn of the Planet of the Apes (2014) AVC Ukr/Eng | Sub Ukr/Eng omm  1 / 0   2.41 GB   2014-11-15 17:34 
   Світанок планети мавп / Dawn of the Planet of the Apes (2014) 720p-mini Drool  2 / 0   3.37 GB   2014-11-13 15:52 
   Світанок планети мавп / Dawn of the Planet of the Apes (2014) 1080p Ukr/Eng | Sub Ukr/Eng 11FrYkT  1 / 0   11.29 GB   2014-11-12 08:22 
   Світанок планети мавп / Dawn of the Planet of the Apes (2014) 720p Ukr/Eng | Sub Ukr/Eng 11FrYkT  3 / 0   5.44 GB   2014-11-11 20:37 
   Світанок планети мавп / Dawn of the Planet of the Apes (2014) Blu-ray CEE Multi | Sub Multi smak2001  0 / 0   43.96 GB   2014-11-11 19:47 
   Світанок планети мавп / Dawn of the Planet of the Apes (2014) patriot2305  7 / 0   1.45 GB   2014-11-11 18:51 
   Світанок планети мавп / Dawn of the Planet of the Apes (2014) Ukr/Eng AngryBirdsUA  0 / 0   2.18 GB   2014-11-11 15:34 
Ваш часовий пояс: GMT + 2 Години

Нова тема   Відповісти