Мулан: Дилогія / Mulan Dilogy (1998/2004) 1080p H.265 2xUkr/Eng | Sub Ukr/Eng

Нові коментарі

Нова тема   Відповісти
Автор Повідомлення
Anonymous 







2019-03-11 00:01  
Мулан: Дилогія / Mulan Dilogy (1998/2004) 1080p H.265 2xUkr/Eng | Sub Ukr/Eng

Мулан: Дилогія / Mulan Dilogy (1998/2004) 1080p H.265 2xUkr/Eng | Sub Ukr/Eng

1. Мулан / Mulan (1998) 1080p H.265 2xUkr/Eng | Sub Ukr/Eng
Мулан / Mulan (1998) 1080p H.265 2xUkr/Eng | Sub Ukr/Eng

Мулан: Дилогія / Mulan Dilogy (1998/2004) 1080p H.265 2xUkr/Eng | Sub Ukr/Eng


Жанр: анімація, пригодницький, сімейний, музичний
Країна: США
Кінокомпанія: Walt Disney Feature Animation, Walt Disney Pictures
Режисер: Тоні Банкрофт / Tony Bancroft, Баррі Кук / Barry Cook
Сюжет:
Для великого народу настали важкі часи: на країну напало войовниче плем'я гунів. Переодягнувшись у чоловічий одяг, Мулан приєднується до інших воїнів і відправляється у небезпечний похід до підніжжя засніжених гір. Її супроводжує кумедний дракончик Мушу, який більше схожий на маленьку собачку, ніж на міфічне чудовисько.

Намагаючись приховати таємницю, вони потрапляють в кумедні ситуації і не підозрюють, що їх секрет ось - ось розкриється!...

Тривалість: 01:27:50
Якість:
Відео:
кодек: H.265 (HEVC)
розмір кадру: 1816 x 1080
бітрейт: 4 121 кб/с
бітова глибина: 10 біт
Увага! Перед завантаженням переконайтесь, що ваш пристрій відтворення (та/або ПЗ) підтримує H.265 (HEVC)

Аудіо # 1:
мова: українська
переклад: професійний дубльований | студія LeDoyen
кодек: AC-3 2.0
бітрейт: 192 кб/с

Аудіо # 2:
мова: українська
переклад: багатоголосий закадровий
кодек: AC-3 2.0
бітрейт: 192 кб/с

Аудіо # 3:
мова: англійська
переклад: оригінал
кодек: AC-3 5.1
бітрейт: 448 кб/с

Субтитри # 1:
мова: українська (Full),
тип: програмні (м'які)
формат: *.srt

Субтитри # 2:
мова: англійська (Full),
тип: програмні (м'які)
формат: *.srt


Info
Код:
General
Unique ID                                : 52656440893305754916489820680605244874 (0x279D42FA0F9AF33BAA5BBBFD152D9DCA)
Complete name                            : F:\Video\Mulan. Dilogy (1998-2004) 1080p H.265 [UKR_ENG] [Hurtom]\1. Mulan (1998) 1080p H.265 [2xUKR_ENG].
Format                                   :
Format version                           : Version 4 / Version 2
File size                                : 3.04 GiB
Duration                                 : 1 h 27 min
Overall bit rate                         : 4 956 kb/s
Movie name                               : Mulan (1998)
Encoded date                             : UTC 2019-03-10 21:39:02
Writing application                      : v20.0.0 ('I Am The Sun') 64-bit
Writing library                          : libebml v1.3.5 + v1.4.8
Cover                                    : Yes
Attachments                              : Cover.jpg

Video
ID                                       : 1
Format                                   : HEVC
Format/Info                              : High Efficiency Video Coding
Format profile                           : Main [email protected]@High
Codec ID                                 : V_MPEGH/ISO/HEVC
Duration                                 : 1 h 27 min
Bit rate                                 : 4 121 kb/s
Width                                    : 1 816 pixels
Height                                   : 1 080 pixels
Display aspect ratio                     : 5:3
Frame rate mode                          : Constant
Frame rate                               : 23.976 (23976/1000) FPS
Original frame rate                      : 23.976 (24000/1001) FPS
Color space                              : YUV
Chroma subsampling                       : 4:2:0
Bit depth                                : 10 bits
Bits/(Pixel*Frame)                       : 0.088
Stream size                              : 2.53 GiB (83%)
Title                                    : Mulan (1998)
Writing library                          : x265 2.8+74-fd517ae68f93:[Windows][MSVC 1915][64 bit] 10bit
Encoding settings                        : cpuid=1111039 / frame-threads=3 / numa-pools=12 / wpp / no-pmode / no-pme / no-psnr / no-ssim / log-level=2 / input-csp=1 / input-res=1816x1080 / interlace=0 / total-frames=43165 / level-idc=41 / high-tier=1 / uhd-bd=0 / ref=5 / no-allow-non-conformance / no-repeat-headers / annexb / no-aud / no-hrd / info / hash=0 / no-temporal-layers / open-gop / min-keyint=23 / keyint=240 / gop-lookahead=0 / bframes=10 / b-adapt=2 / b-pyramid / bframe-bias=0 / rc-lookahead=60 / lookahead-slices=4 / scenecut=40 / radl=0 / no-intra-refresh / ctu=32 / min-cu-size=8 / rect / amp / max-tu-size=32 / tu-inter-depth=4 / tu-intra-depth=4 / limit-tu=1 / rdoq-level=2 / dynamic-rd=0.00 / no-ssim-rd / signhide / no-tskip / nr-intra=0 / nr-inter=0 / no-constrained-intra / no-strong-intra-smoothing / max-merge=4 / limit-refs=2 / limit-modes / me=3 / subme=7 / merange=57 / temporal-mvp / weightp / weightb / no-analyze-src-pics / deblock=-3:-3 / no-sao / no-sao-non-deblock / rd=6 / no-early-skip / no-rskip / no-fast-intra / no-tskip-fast / no-cu-lossless / no-b-intra / no-splitrd-skip / rdpenalty=0 / psy-rd=2.00 / psy-rdoq=1.00 / no-rd-refine / no-lossless / cbqpoffs=0 / crqpoffs=0 / rc=crf / crf=20.0 / qcomp=0.60 / qpstep=4 / stats-write=0 / stats-read=0 / vbv-maxrate=50000 / vbv-bufsize=50000 / vbv-init=0.9 / crf-max=0.0 / crf-min=0.0 / ipratio=1.40 / pbratio=1.30 / aq-mode=1 / aq-strength=0.90 / no-cutree / zone-count=0 / no-strict-cbr / qg-size=32 / no-rc-grain / qpmax=69 / qpmin=0 / no-const-vbv / sar=1 / overscan=0 / videoformat=5 / range=0 / colorprim=2 / transfer=2 / colormatrix=2 / chromaloc=0 / display-window=0 / max-cll=0,0 / min-luma=0 / max-luma=1023 / log2-max-poc-lsb=8 / vui-timing-info / vui-hrd-info / slices=1 / no-opt-qp-pps / no-opt-ref-list-length-pps / no-multi-pass-opt-rps / scenecut-bias=0.05 / no-opt-cu-delta-qp / no-aq-motion / no-hdr / no-hdr-opt / no-dhdr10-opt / no-idr-recovery-sei / analysis-reuse-level=5 / scale-factor=0 / refine-intra=0 / refine-inter=0 / refine-mv=0 / no-limit-sao / ctu-info=0 / no-lowpass-dct / refine-mv-type=0 / copy-pic=1 / max-ausize-factor=1.0 / no-dynamic-refine / no-single-sei
Default                                  : Yes
Forced                                   : No

Audio #1
ID                                       : 2
Format                                   : AC-3
Format/Info                              : Audio Coding 3
Codec ID                                 : A_AC3
Duration                                 : 1 h 27 min
Bit rate mode                            : Constant
Bit rate                                 : 192 kb/s
Channel(s)                               : 2 channels
Channel positions                        : Front: L R
Sampling rate                            : 48.0 kHz
Frame rate                               : 31.250 FPS (1536 SPF)
Bit depth                                : 16 bits
Compression mode                         : Lossy
Stream size                              : 121 MiB (4%)
Title                                    : ПД - студія LeDoyen
Language                                 : Ukrainian
Service kind                             : Complete Main
Default                                  : Yes
Forced                                   : Yes

Audio #2
ID                                       : 3
Format                                   : AC-3
Format/Info                              : Audio Coding 3
Codec ID                                 : A_AC3
Duration                                 : 1 h 27 min
Bit rate mode                            : Constant
Bit rate                                 : 192 kb/s
Channel(s)                               : 2 channels
Channel positions                        : Front: L R
Sampling rate                            : 48.0 kHz
Frame rate                               : 31.250 FPS (1536 SPF)
Bit depth                                : 16 bits
Compression mode                         : Lossy
Stream size                              : 121 MiB (4%)
Title                                    : БЗ - K1
Language                                 : Ukrainian
Service kind                             : Complete Main
Default                                  : No
Forced                                   : No

Audio #3
ID                                       : 4
Format                                   : AC-3
Format/Info                              : Audio Coding 3
Codec ID                                 : A_AC3
Duration                                 : 1 h 27 min
Bit rate mode                            : Constant
Bit rate                                 : 448 kb/s
Channel(s)                               : 6 channels
Channel positions                        : Front: L C R, Side: L R, LFE
Sampling rate                            : 48.0 kHz
Frame rate                               : 31.250 FPS (1536 SPF)
Bit depth                                : 16 bits
Compression mode                         : Lossy
Stream size                              : 281 MiB (9%)
Title                                    : Original
Language                                 : English
Service kind                             : Complete Main
Default                                  : No
Forced                                   : No

Text #1
ID                                       : 5
Format                                   : UTF-8
Codec ID                                 : S_TEXT/UTF8
Codec ID/Info                            : UTF-8 Plain Text
Duration                                 : 1 h 20 min
Bit rate                                 : 69 b/s
Count of elements                        : 881
Stream size                              : 41.2 KiB (0%)
Title                                    : Full
Language                                 : Ukrainian
Default                                  : No
Forced                                   : No

Text #2
ID                                       : 6
Format                                   : UTF-8
Codec ID                                 : S_TEXT/UTF8
Codec ID/Info                            : UTF-8 Plain Text
Duration                                 : 1 h 19 min
Bit rate                                 : 48 b/s
Count of elements                        : 874
Stream size                              : 28.1 KiB (0%)
Title                                    : Full
Language                                 : English
Default                                  : No
Forced                                   : No

Menu
00:00:00.000                             : en:1. Main Title
00:00:59.184                             : en:2. The Huns Attack
00:03:06.353                             : en:3. Last-Minute Review
00:06:07.075                             : en:4. "Honor to Us All"
00:09:06.421                             : en:5. The Matchmaker
00:11:55.006                             : en:6. "Reflection"
00:14:13.811                             : en:7. A Proclamation From the Emperor
00:17:22.917                             : en:8. Mulan's Choice
00:20:24.932                             : en:9. The Ancestors
00:23:14.143                             : en:10. A Guardian for Mulan
00:25:26.275                             : en:11. A Message for the Emperor
00:26:56.949                             : en:12. The Powerful Mushu
00:29:10.582                             : en:13. A Man's World
00:32:54.347                             : en:14. The Greatest Troops of All Time
00:34:49.212                             : en:15. Rise and Shine
00:37:31.249                             : en:16. "I'll Make a Man Out of You"
00:42:07.608                             : en:17. Close Call
00:45:49.872                             : en:18. Mushu's Plan
00:46:45.553                             : en:19. Urgent News From the General
00:47:33.684                             : en:20. "A Girl Worth Fighting for"
00:49:48.694                             : en:21. A Village Destroyed
00:54:38.275                             : en:22. The Hun Onslaught
00:59:49.419                             : en:23. The Masquerade is Over
01:04:20.356                             : en:24. Indestructable Huns
01:06:02.125                             : en:25. Victory Celebration
01:08:47.040                             : en:26. Huns in the Imperial City
01:11:41.297                             : en:27. Saving the Emperor
01:15:44.123                             : en:28. Honor for Mulan
01:18:53.187                             : en:29. Homecoming
01:20:57.478                             : en:30. "True to Your Heart"/End Credits
Світлини





Джерело: &
Особиста оцінка: 0 - не дивився
2. Мулан 2 / Mulan II (2004) 1080p H.265 Ukr/Eng | Sub Ukr/Eng
Мулан 2 / Mulan II (2004) 1080p H.265 Ukr/Eng | Sub Ukr/Eng

Мулан: Дилогія / Mulan Dilogy (1998/2004) 1080p H.265 2xUkr/Eng | Sub Ukr/Eng


Жанр: анімація, комедія, сімейний
Країна: США
Кінокомпанія: Walt Disney Pictures
Режисер: Дерел Рунні / Darrell Rooney, Лінні Соусленд / Lynne Southerland
Ролі озвучують: Мінг-На / Ming-Na, Б.Д. Вонг / B.D. Wong, Марк Мослі / Mark Moseley, Люсі Лью / Lucy Liu, Харві Фірстейн / Harvey Fierstein, Сандра Оу / Sandra Oh, Гедд Ватанабе / Gedde Watanabe, Лоурен Том / Lauren Tom, Джері Тондо / Jerry Tondo, Пет Моріта / Pat Morita, Джордж Такей / George Takei, Джун Форей / June Foray, Фреда Фох Шен / Freda Foh Shen, Сун-Тек Оу / Soon-Tek Oh, Френк Велкер / Frank Welker

Сюжет:
Нова захоплююча подорож з уже знайомими героями - відважною китайською войовницею Мулан і її вірним другом Лі Шанем. Цього разу їм, хоробрим переможцям монгольських орд, належить найвідповідальніша місія в житті. Це ... весілля.
Але, перш ніж Мулан і Лі Шань одружаться, вони повинні подбати й про чуже щастя, доправивши трьох китайських принцес їх нареченим. Легке завдання? Не дуже, якщо вам «допомагає» найлегковажніший дракон у світі Мушу, а підступні монголи вже затівають нові підступи!..

Тривалість: 01:18:41
Якість:
Відео:
кодек: H.265 (HEVC)
розмір кадру: 1920 x 1080
бітрейт: 4 238 кб/с
бітова глибина: 10 біт
Увага! Перед завантаженням переконайтесь, що ваш пристрій відтворення (та/або ПЗ) підтримує H.265 (HEVC)

Аудіо # 1:
мова: українська
переклад: професійний дубльований
кодек: AC-3 2.0
бітрейт: 192 кб/с

Аудіо # 2:
мова: англійська
переклад: оригінал
кодек: AC-3 5.1
бітрейт: 640 кб/с

Субтитри # 1:
мова: українська (Full),
тип: програмні (м'які)
формат: *.srt

Субтитри # 2:
мова: англійська (Full),
тип: програмні (м'які)
формат: *.srt

Субтитри # 3:
мова: англійська (SDH),
тип: програмні (м'які)
формат: *.srt


Info
Код:
General
Unique ID                                : 219327219186446608556060801615325608555 (0xA500E2CAAC2511E09A5B9CF95270BA6B)
Complete name                            : F:\Video\Mulan. Dilogy (1998-2004) 1080p H.265 [UKR_ENG] [Hurtom]\2. Mulan II (2004) 1080p H.265 [UKR_ENG] [Hurtom].
Format                                   :
Format version                           : Version 4 / Version 2
File size                                : 2.79 GiB
Duration                                 : 1 h 18 min
Overall bit rate                         : 5 073 kb/s
Movie name                               : Mulan II (2004)
Encoded date                             : UTC 2019-03-10 21:42:34
Writing application                      : v20.0.0 ('I Am The Sun') 64-bit
Writing library                          : libebml v1.3.5 + v1.4.8
Cover                                    : Yes
Attachments                              : Cover1.jpg

Video
ID                                       : 1
Format                                   : HEVC
Format/Info                              : High Efficiency Video Coding
Format profile                           : Main [email protected]@High
Codec ID                                 : V_MPEGH/ISO/HEVC
Duration                                 : 1 h 18 min
Bit rate                                 : 4 238 kb/s
Width                                    : 1 920 pixels
Height                                   : 1 080 pixels
Display aspect ratio                     : 16:9
Frame rate mode                          : Constant
Frame rate                               : 23.976 (23976/1000) FPS
Original frame rate                      : 23.976 (24000/1001) FPS
Color space                              : YUV
Chroma subsampling                       : 4:2:0
Bit depth                                : 10 bits
Bits/(Pixel*Frame)                       : 0.085
Stream size                              : 2.33 GiB (84%)
Title                                    : Mulan II (2004)
Writing library                          : x265 2.8+74-fd517ae68f93:[Windows][MSVC 1915][64 bit] 10bit
Encoding settings                        : cpuid=1111039 / frame-threads=3 / numa-pools=12 / wpp / no-pmode / no-pme / no-psnr / no-ssim / log-level=2 / input-csp=1 / input-res=1920x1080 / interlace=0 / total-frames=43176 / level-idc=41 / high-tier=1 / uhd-bd=0 / ref=5 / no-allow-non-conformance / no-repeat-headers / annexb / no-aud / no-hrd / info / hash=0 / no-temporal-layers / open-gop / min-keyint=23 / keyint=240 / gop-lookahead=0 / bframes=10 / b-adapt=2 / b-pyramid / bframe-bias=0 / rc-lookahead=60 / lookahead-slices=4 / scenecut=40 / radl=0 / no-intra-refresh / ctu=32 / min-cu-size=8 / rect / amp / max-tu-size=32 / tu-inter-depth=4 / tu-intra-depth=4 / limit-tu=1 / rdoq-level=2 / dynamic-rd=0.00 / no-ssim-rd / signhide / no-tskip / nr-intra=0 / nr-inter=0 / no-constrained-intra / no-strong-intra-smoothing / max-merge=4 / limit-refs=2 / limit-modes / me=3 / subme=7 / merange=57 / temporal-mvp / weightp / weightb / no-analyze-src-pics / deblock=-3:-3 / no-sao / no-sao-non-deblock / rd=6 / no-early-skip / no-rskip / no-fast-intra / no-tskip-fast / no-cu-lossless / no-b-intra / no-splitrd-skip / rdpenalty=0 / psy-rd=2.00 / psy-rdoq=1.00 / no-rd-refine / no-lossless / cbqpoffs=0 / crqpoffs=0 / rc=crf / crf=20.0 / qcomp=0.60 / qpstep=4 / stats-write=0 / stats-read=0 / vbv-maxrate=50000 / vbv-bufsize=50000 / vbv-init=0.9 / crf-max=0.0 / crf-min=0.0 / ipratio=1.40 / pbratio=1.30 / aq-mode=1 / aq-strength=0.90 / no-cutree / zone-count=0 / no-strict-cbr / qg-size=32 / no-rc-grain / qpmax=69 / qpmin=0 / no-const-vbv / sar=1 / overscan=0 / videoformat=5 / range=0 / colorprim=2 / transfer=2 / colormatrix=2 / chromaloc=0 / display-window=0 / max-cll=0,0 / min-luma=0 / max-luma=1023 / log2-max-poc-lsb=8 / vui-timing-info / vui-hrd-info / slices=1 / no-opt-qp-pps / no-opt-ref-list-length-pps / no-multi-pass-opt-rps / scenecut-bias=0.05 / no-opt-cu-delta-qp / no-aq-motion / no-hdr / no-hdr-opt / no-dhdr10-opt / no-idr-recovery-sei / analysis-reuse-level=5 / scale-factor=0 / refine-intra=0 / refine-inter=0 / refine-mv=0 / no-limit-sao / ctu-info=0 / no-lowpass-dct / refine-mv-type=0 / copy-pic=1 / max-ausize-factor=1.0 / no-dynamic-refine / no-single-sei
Default                                  : Yes
Forced                                   : No

Audio #1
ID                                       : 2
Format                                   : AC-3
Format/Info                              : Audio Coding 3
Codec ID                                 : A_AC3
Duration                                 : 1 h 18 min
Bit rate mode                            : Constant
Bit rate                                 : 192 kb/s
Channel(s)                               : 2 channels
Channel positions                        : Front: L R
Sampling rate                            : 48.0 kHz
Frame rate                               : 31.250 FPS (1536 SPF)
Bit depth                                : 16 bits
Compression mode                         : Lossy
Stream size                              : 108 MiB (4%)
Title                                    : ПД - iTunes - Невафільм Україна
Language                                 : Ukrainian
Service kind                             : Complete Main
Default                                  : Yes
Forced                                   : Yes

Audio #2
ID                                       : 3
Format                                   : AC-3
Format/Info                              : Audio Coding 3
Codec ID                                 : A_AC3
Duration                                 : 1 h 18 min
Bit rate mode                            : Constant
Bit rate                                 : 640 kb/s
Channel(s)                               : 6 channels
Channel positions                        : Front: L C R, Side: L R, LFE
Sampling rate                            : 48.0 kHz
Frame rate                               : 31.250 FPS (1536 SPF)
Bit depth                                : 16 bits
Compression mode                         : Lossy
Stream size                              : 360 MiB (13%)
Title                                    : DD 5.1 @ 640 kbps
Language                                 : English
Service kind                             : Complete Main
Default                                  : No
Forced                                   : No

Text #1
ID                                       : 4
Format                                   : UTF-8
Codec ID                                 : S_TEXT/UTF8
Codec ID/Info                            : UTF-8 Plain Text
Duration                                 : 1 h 12 min
Bit rate                                 : 103 b/s
Count of elements                        : 972
Stream size                              : 55.3 KiB (0%)
Title                                    : Full
Language                                 : Ukrainian
Default                                  : Yes
Forced                                   : No

Text #2
ID                                       : 5
Format                                   : UTF-8
Codec ID                                 : S_TEXT/UTF8
Codec ID/Info                            : UTF-8 Plain Text
Duration                                 : 1 h 12 min
Bit rate                                 : 65 b/s
Count of elements                        : 1085
Stream size                              : 34.8 KiB (0%)
Title                                    : Full
Language                                 : English
Default                                  : No
Forced                                   : No

Text #3
ID                                       : 6
Format                                   : UTF-8
Codec ID                                 : S_TEXT/UTF8
Codec ID/Info                            : UTF-8 Plain Text
Duration                                 : 1 h 17 min
Bit rate                                 : 74 b/s
Count of elements                        : 1470
Stream size                              : 42.6 KiB (0%)
Title                                    : SDH
Language                                 : English
Default                                  : No
Forced                                   : No

Menu
00:00:00.000                             : en:Opening Credits
00:03:12.317                             : en:"Lesson #1"
00:08:30.844                             : en:Shang's Proposal
00:12:12.023                             : en:Mushu's On His Way Out!
00:14:15.354                             : en:Yin &Yang
00:17:16.202                             : en:The New Mission
00:19:57.196                             : en:"A Girl Worth Fighting For"
00:25:07.089                             : en:The Princesses And Their Guards
00:31:51.660                             : en:Mushu's Meddling
00:38:00.570                             : en:"Like Other Girls"
00:42:18.953                             : en:Mushu's Puppet Show
00:51:12.945                             : en:Breaking A Vow
01:02:08.725                             : en:Fulfilling the Duty
01:04:57.977                             : en:The Wedding
01:10:14.043                             : en:Back on the Pedestal
01:13:23.774                             : en:End Credits/"Like Other Girls"
Світлини





Джерело: &
Особиста оцінка: 0 - не дивився


Джерело: &
Особиста оцінка: 0 - не дивився


Срібний реліз (на рейтинг впливає 50% завантаженого)
 Трекер:    Зареєстрований   

Завантажити / скачати мультфільм українською



відео для новачків



 Зареєстрований:   2019-03-11 00:01
 Розмір:   5.83 GB 
 Оцінка мультфільму:   9.6/10 (Голосів: 9)
   
Ваш часовий пояс: GMT + 2 Години

Нова тема   Відповісти