Старскі та Гатч / Starsky & Hutch (2004) 1080p H.265 6xUkr/Eng | Sub Eng

Нові коментарі

Нова тема   Відповісти
Автор Повідомлення
Anonymous 







2019-03-10 23:53  
Старскі та Гатч / Starsky & Hutch (2004) 1080p H.265 6xUkr/Eng | Sub Eng

Старскі та Гатч / Starsky & Hutch (2004) 1080p H.265 6xUkr/Eng | Sub Eng


Жанр: комедія, кримінальний
Країна: США
Кінокомпанія: Dimension Films, Warner Bros., AR-TL
Режисер: Тодд Філіпс / Todd Phillips
Актори: Бен Стіллер / Ben Stiller, Оввен Вілсон / Owen Wilson, Снуп Доґ / Snoop Dogg, Фред Вільямсон / Fred Williamson, Вінс Вон / Vince Vaughn, Жульєт Левіс / Juliette Lewis, Джейсон Бейтмен / Jason Bateman, Емі смарт / Amy Smart, Кармен Електра / Carmen Electra, Джордж Ченґ / George Cheung, Кріс Пен / Chris Penn та інші.

Сюжет:
Детектив Дейвід Старскі - досвідчений поліцейський, який працює на вулицях Бей-Сіті у Каліфорнії. Він весь час намагається довести собі та оточуючим, що може виконувати свої обов’язки не гірше, ніж його мати - легенда міської поліції. У детектива Кена Гатчінсона інші погляди на образ ідеального охоронця закону. Шеф поліції вирішує об’єднати таланти двох полісменів, зробивши їх напарниками.

Тривалість: 01:40:30
Якість:
Відео:
кодек: H.265 (HEVC)
розмір кадру: 1920 x 784
бітрейт: 10 350 кб/с
бітова глибина: 10 біт
Увага! Перед завантаженням переконайтесь, що ваш пристрій відтворення (та/або ПЗ) підтримує H.265 (HEVC)

Аудіо # 1:
мова: українська
переклад: професійний дубльований
кодек: AC-3 2.0
бітрейт: 192 кб/с

Аудіо # 2:
мова: українська
переклад: двоголосий закадровий
кодек: AC-3 2.0
бітрейт: 192 кб/с

Аудіо # 3:
мова: українська
переклад: багатоголосий закадровий
кодек: AC-3 2.0 (Стерео)
бітрейт: 192 кб/с

Аудіо # 4:
мова: українська
переклад: багатоголосий закадровий
кодек: AC-3 2.0
бітрейт: 192 кб/с

Аудіо # 5:
мова: українська
переклад: багатоголосий закадровий
кодек: AC-3 2.0
бітрейт: 192 кб/с

Аудіо # 6:
мова: українська
переклад: багатоголосий закадровий
кодек: AC-3 2.0
бітрейт: 192 кб/с

Аудіо # 7:
мова: англійська
переклад: оригінал
кодек: AC-3 5.1
бітрейт: 384 кб/с

Субтитри # 1:
мова: англійська (Full),
тип: програмні (м'які)
формат: *.srt


Info
Код:
General
Unique ID                                : 185670084934017937411401906312949099636 (0x8BAEC1F4604DA1E85205F8EA3E7D6C74)
Complete name                            : F:\Video\Starsky & Hutch (2004) 1080p H.265 [6xUKR_ENG] [Hurtom].
Format                                   :
Format version                           : Version 4 / Version 2
File size                                : 8.35 GiB
Duration                                 : 1 h 40 min
Overall bit rate                         : 11.9 Mb/s
Movie name                               : Starsky & Hutch (2004)
Encoded date                             : UTC 2019-03-10 21:08:29
Writing application                      : v20.0.0 ('I Am The Sun') 64-bit
Writing library                          : libebml v1.3.5 + v1.4.8
Cover                                    : Yes
Attachments                              : Cover.jpg

Video
ID                                       : 1
Format                                   : HEVC
Format/Info                              : High Efficiency Video Coding
Format profile                           : Main [email protected]@Main
Codec ID                                 : V_MPEGH/ISO/HEVC
Duration                                 : 1 h 40 min
Bit rate                                 : 10.3 Mb/s
Width                                    : 1 920 pixels
Height                                   : 784 pixels
Display aspect ratio                     : 2.40:1
Frame rate mode                          : Constant
Frame rate                               : 23.976 (24000/1001) FPS
Color space                              : YUV
Chroma subsampling                       : 4:2:0
Bit depth                                : 10 bits
Bits/(Pixel*Frame)                       : 0.287
Stream size                              : 7.27 GiB (87%)
Title                                    : Starsky & Hutch (2004)
Default                                  : Yes
Forced                                   : No
Color range                              : Limited

Audio #1
ID                                       : 2
Format                                   : AC-3
Format/Info                              : Audio Coding 3
Codec ID                                 : A_AC3
Duration                                 : 1 h 40 min
Bit rate mode                            : Constant
Bit rate                                 : 192 kb/s
Channel(s)                               : 2 channels
Channel positions                        : Front: L R
Sampling rate                            : 48.0 kHz
Frame rate                               : 31.250 FPS (1536 SPF)
Bit depth                                : 16 bits
Compression mode                         : Lossy
Stream size                              : 138 MiB (2%)
Title                                    : ПД - NLO
Language                                 : Ukrainian
Service kind                             : Complete Main
Default                                  : Yes
Forced                                   : Yes

Audio #2
ID                                       : 3
Format                                   : AC-3
Format/Info                              : Audio Coding 3
Codec ID                                 : A_AC3
Duration                                 : 1 h 40 min
Bit rate mode                            : Constant
Bit rate                                 : 192 kb/s
Channel(s)                               : 2 channels
Channel positions                        : Front: L R
Sampling rate                            : 48.0 kHz
Frame rate                               : 31.250 FPS (1536 SPF)
Bit depth                                : 16 bits
Compression mode                         : Lossy
Stream size                              : 138 MiB (2%)
Title                                    : ДЗ - 1+1
Language                                 : Ukrainian
Service kind                             : Complete Main
Default                                  : No
Forced                                   : No

Audio #3
ID                                       : 4
Format                                   : AC-3
Format/Info                              : Audio Coding 3
Codec ID                                 : A_AC3
Duration                                 : 1 h 40 min
Bit rate mode                            : Constant
Bit rate                                 : 192 kb/s
Channel(s)                               : 2 channels
Channel positions                        : Front: L R
Sampling rate                            : 48.0 kHz
Frame rate                               : 31.250 FPS (1536 SPF)
Bit depth                                : 16 bits
Compression mode                         : Lossy
Stream size                              : 138 MiB (2%)
Title                                    : БЗ - AMC
Language                                 : Ukrainian
Service kind                             : Complete Main
Default                                  : No
Forced                                   : No

Audio #4
ID                                       : 5
Format                                   : AC-3
Format/Info                              : Audio Coding 3
Codec ID                                 : A_AC3
Duration                                 : 1 h 40 min
Bit rate mode                            : Constant
Bit rate                                 : 192 kb/s
Channel(s)                               : 2 channels
Channel positions                        : Front: L R
Sampling rate                            : 48.0 kHz
Frame rate                               : 31.250 FPS (1536 SPF)
Bit depth                                : 16 bits
Compression mode                         : Lossy
Stream size                              : 138 MiB (2%)
Title                                    : БЗ -Novy Kanal
Language                                 : Ukrainian
Service kind                             : Complete Main
Default                                  : No
Forced                                   : No

Audio #5
ID                                       : 6
Format                                   : AC-3
Format/Info                              : Audio Coding 3
Codec ID                                 : A_AC3
Duration                                 : 1 h 40 min
Bit rate mode                            : Constant
Bit rate                                 : 192 kb/s
Channel(s)                               : 2 channels
Channel positions                        : Front: L R
Sampling rate                            : 48.0 kHz
Frame rate                               : 31.250 FPS (1536 SPF)
Bit depth                                : 16 bits
Compression mode                         : Lossy
Stream size                              : 138 MiB (2%)
Title                                    : БЗ - K1
Language                                 : Ukrainian
Service kind                             : Complete Main
Default                                  : No
Forced                                   : No

Audio #6
ID                                       : 7
Format                                   : AC-3
Format/Info                              : Audio Coding 3
Codec ID                                 : A_AC3
Duration                                 : 1 h 40 min
Bit rate mode                            : Constant
Bit rate                                 : 192 kb/s
Channel(s)                               : 2 channels
Channel positions                        : Front: L R
Sampling rate                            : 48.0 kHz
Frame rate                               : 31.250 FPS (1536 SPF)
Bit depth                                : 16 bits
Compression mode                         : Lossy
Stream size                              : 138 MiB (2%)
Title                                    : БЗ - ICTV
Language                                 : Ukrainian
Service kind                             : Complete Main
Default                                  : No
Forced                                   : No

Audio #7
ID                                       : 8
Format                                   : AC-3
Format/Info                              : Audio Coding 3
Codec ID                                 : A_AC3
Duration                                 : 1 h 40 min
Bit rate mode                            : Constant
Bit rate                                 : 384 kb/s
Channel(s)                               : 6 channels
Channel positions                        : Front: L C R, Side: L R, LFE
Sampling rate                            : 48.0 kHz
Frame rate                               : 31.250 FPS (1536 SPF)
Bit depth                                : 16 bits
Compression mode                         : Lossy
Stream size                              : 276 MiB (3%)
Title                                    : Original
Language                                 : English
Service kind                             : Complete Main
Default                                  : No
Forced                                   : No

Text
ID                                       : 9
Format                                   : UTF-8
Codec ID                                 : S_TEXT/UTF8
Codec ID/Info                            : UTF-8 Plain Text
Duration                                 : 1 h 32 min
Bit rate                                 : 81 b/s
Count of elements                        : 1316
Stream size                              : 55.2 KiB (0%)
Title                                    : Full
Language                                 : English
Default                                  : Yes
Forced                                   : No

Menu
00:00:00.000                             : en:00:00:00.000
00:02:19.723                             : en:00:02:19.723
00:04:34.566                             : en:00:04:34.566
00:06:37.939                             : en:00:06:37.939
00:09:03.418                             : en:00:09:03.418
00:13:32.311                             : en:00:13:32.311
00:16:55.598                             : en:00:16:55.598
00:19:56.612                             : en:00:19:56.612
00:21:59.360                             : en:00:21:59.360
00:25:31.822                             : en:00:25:31.822
00:28:58.654                             : en:00:28:58.654
00:30:12.477                             : en:00:30:12.477
00:34:01.164                             : en:00:34:01.164
00:38:00.111                             : en:00:38:00.111
00:41:38.788                             : en:00:41:38.788
00:45:21.260                             : en:00:45:21.260
00:50:00.414                             : en:00:50:00.414
00:53:13.399                             : en:00:53:13.399
00:56:28.385                             : en:00:56:28.385
00:59:33.820                             : en:00:59:33.820
01:02:29.746                             : en:01:02:29.746
01:04:09.804                             : en:01:04:09.804
01:06:48.922                             : en:01:06:48.922
01:09:24.994                             : en:01:09:24.994
01:13:00.376                             : en:01:13:00.376
01:16:52.775                             : en:01:16:52.775
01:20:24.903                             : en:01:20:24.903
01:24:51.086                             : en:01:24:51.086
01:29:44.713                             : en:01:29:44.713
01:30:47.400                             : en:01:30:47.400
01:33:57.257                             : en:01:33:57.257
01:40:29.982                             : en:01:40:29.982
Світлини





Джерело: &
Особиста оцінка: 0 - не дивився


Срібний реліз (на рейтинг впливає 50% завантаженого)
 Трекер:    Зареєстрований   

Завантажити / скачати фільм українською



відео для новачків



 Зареєстрований:   2019-03-10 23:53
 Розмір:   8.35 GB 
 Оцінка фільму:   -/10 (Голосів: 0)
   
Ваш часовий пояс: GMT + 2 Години

Нова тема   Відповісти